  0
SECTION
  2
HEADER
  9
$ACADVER
  1
AC1015
  9
$ACADMAINTVER
 70
    11
  9
$DWGCODEPAGE
  3
ANSI_932
  9
$INSBASE
 10
0.0
 20
0.0
 30
0.0
  9
$EXTMIN
 10
145.4521300119551
 20
-8.088705747197366
 30
0.0
  9
$EXTMAX
 10
504.781251721115
 20
360.5541517093813
 30
0.0
  9
$LIMMIN
 10
0.0
 20
0.0
  9
$LIMMAX
 10
420.0
 20
297.0
  9
$ORTHOMODE
 70
     0
  9
$REGENMODE
 70
     1
  9
$FILLMODE
 70
     1
  9
$QTEXTMODE
 70
     0
  9
$MIRRTEXT
 70
     1
  9
$LTSCALE
 40
1.0
  9
$ATTMODE
 70
     1
  9
$TEXTSIZE
 40
2.5
  9
$TRACEWID
 40
1.0
  9
$TEXTSTYLE
  7
ＭＳ明朝
  9
$CLAYER
  8
1
  9
$CELTYPE
  6
BYLAYER
  9
$CECOLOR
 62
   256
  9
$CELTSCALE
 40
1.0
  9
$DISPSILH
 70
     0
  9
$DIMSCALE
 40
0.0
  9
$DIMASZ
 40
2.5
  9
$DIMEXO
 40
1.5
  9
$DIMDLI
 40
5.0
  9
$DIMRND
 40
0.0
  9
$DIMDLE
 40
0.0
  9
$DIMEXE
 40
1.25
  9
$DIMTP
 40
0.0
  9
$DIMTM
 40
0.0
  9
$DIMTXT
 40
2.5
  9
$DIMCEN
 40
-5.0
  9
$DIMTSZ
 40
0.0
  9
$DIMTOL
 70
     0
  9
$DIMLIM
 70
     0
  9
$DIMTIH
 70
     0
  9
$DIMTOH
 70
     0
  9
$DIMSE1
 70
     0
  9
$DIMSE2
 70
     0
  9
$DIMTAD
 70
     1
  9
$DIMZIN
 70
     8
  9
$DIMBLK
  1

  9
$DIMASO
 70
     1
  9
$DIMSHO
 70
     1
  9
$DIMPOST
  1

  9
$DIMAPOST
  1

  9
$DIMALT
 70
     0
  9
$DIMALTD
 70
     4
  9
$DIMALTF
 40
0.0394
  9
$DIMLFAC
 40
1.0
  9
$DIMTOFL
 70
     1
  9
$DIMTVP
 40
0.0
  9
$DIMTIX
 70
     0
  9
$DIMSOXD
 70
     0
  9
$DIMSAH
 70
     0
  9
$DIMBLK1
  1

  9
$DIMBLK2
  1

  9
$DIMSTYLE
  2
STANDARD
  9
$DIMCLRD
 70
     0
  9
$DIMCLRE
 70
     0
  9
$DIMCLRT
 70
     0
  9
$DIMTFAC
 40
1.0
  9
$DIMGAP
 40
0.5
  9
$DIMJUST
 70
     0
  9
$DIMSD1
 70
     0
  9
$DIMSD2
 70
     0
  9
$DIMTOLJ
 70
     1
  9
$DIMTZIN
 70
     0
  9
$DIMALTZ
 70
     0
  9
$DIMALTTZ
 70
     0
  9
$DIMUPT
 70
     0
  9
$DIMDEC
 70
     3
  9
$DIMTDEC
 70
     3
  9
$DIMALTU
 70
     8
  9
$DIMALTTD
 70
     4
  9
$DIMTXSTY
  7
ＭＳ明朝
  9
$DIMAUNIT
 70
     0
  9
$DIMADEC
 70
     0
  9
$DIMALTRND
 40
0.0
  9
$DIMAZIN
 70
     0
  9
$DIMDSEP
 70
    46
  9
$DIMATFIT
 70
     3
  9
$DIMFRAC
 70
     0
  9
$DIMLDRBLK
  1

  9
$DIMLUNIT
 70
     6
  9
$DIMLWD
 70
    -2
  9
$DIMLWE
 70
    -2
  9
$DIMTMOVE
 70
     0
  9
$LUNITS
 70
     2
  9
$LUPREC
 70
     2
  9
$SKETCHINC
 40
1.0
  9
$FILLETRAD
 40
2.0
  9
$AUNITS
 70
     0
  9
$AUPREC
 70
     0
  9
$MENU
  1
acad
  9
$ELEVATION
 40
0.0
  9
$PELEVATION
 40
0.0
  9
$THICKNESS
 40
0.0
  9
$LIMCHECK
 70
     0
  9
$CHAMFERA
 40
10.0
  9
$CHAMFERB
 40
10.0
  9
$CHAMFERC
 40
20.0
  9
$CHAMFERD
 40
0.0
  9
$SKPOLY
 70
     0
  9
$TDCREATE
 40
2455957.594655949
  9
$TDUCREATE
 40
2455957.219655949
  9
$TDUPDATE
 40
2456160.760854120
  9
$TDUUPDATE
 40
2456160.385854120
  9
$TDINDWG
 40
0.0619959375
  9
$TDUSRTIMER
 40
0.0619959375
  9
$USRTIMER
 70
     1
  9
$ANGBASE
 50
0.0
  9
$ANGDIR
 70
     0
  9
$PDMODE
 70
     0
  9
$PDSIZE
 40
0.0
  9
$PLINEWID
 40
0.0
  9
$SPLFRAME
 70
     0
  9
$SPLINETYPE
 70
     6
  9
$SPLINESEGS
 70
     8
  9
$HANDSEED
  5
18E3
  9
$SURFTAB1
 70
     6
  9
$SURFTAB2
 70
     6
  9
$SURFTYPE
 70
     6
  9
$SURFU
 70
     6
  9
$SURFV
 70
     6
  9
$UCSBASE
  2

  9
$UCSNAME
  2

  9
$UCSORG
 10
0.0
 20
0.0
 30
0.0
  9
$UCSXDIR
 10
1.0
 20
0.0
 30
0.0
  9
$UCSYDIR
 10
0.0
 20
1.0
 30
0.0
  9
$UCSORTHOREF
  2

  9
$UCSORTHOVIEW
 70
     0
  9
$UCSORGTOP
 10
0.0
 20
0.0
 30
0.0
  9
$UCSORGBOTTOM
 10
0.0
 20
0.0
 30
0.0
  9
$UCSORGLEFT
 10
0.0
 20
0.0
 30
0.0
  9
$UCSORGRIGHT
 10
0.0
 20
0.0
 30
0.0
  9
$UCSORGFRONT
 10
0.0
 20
0.0
 30
0.0
  9
$UCSORGBACK
 10
0.0
 20
0.0
 30
0.0
  9
$PUCSBASE
  2

  9
$PUCSNAME
  2

  9
$PUCSORG
 10
0.0
 20
0.0
 30
0.0
  9
$PUCSXDIR
 10
1.0
 20
0.0
 30
0.0
  9
$PUCSYDIR
 10
0.0
 20
1.0
 30
0.0
  9
$PUCSORTHOREF
  2

  9
$PUCSORTHOVIEW
 70
     0
  9
$PUCSORGTOP
 10
0.0
 20
0.0
 30
0.0
  9
$PUCSORGBOTTOM
 10
0.0
 20
0.0
 30
0.0
  9
$PUCSORGLEFT
 10
0.0
 20
0.0
 30
0.0
  9
$PUCSORGRIGHT
 10
0.0
 20
0.0
 30
0.0
  9
$PUCSORGFRONT
 10
0.0
 20
0.0
 30
0.0
  9
$PUCSORGBACK
 10
0.0
 20
0.0
 30
0.0
  9
$USERI1
 70
     0
  9
$USERI2
 70
     0
  9
$USERI3
 70
     0
  9
$USERI4
 70
     0
  9
$USERI5
 70
     0
  9
$USERR1
 40
0.0
  9
$USERR2
 40
0.0
  9
$USERR3
 40
0.0
  9
$USERR4
 40
0.0
  9
$USERR5
 40
0.0
  9
$WORLDVIEW
 70
     1
  9
$SHADEDGE
 70
     3
  9
$SHADEDIF
 70
    70
  9
$TILEMODE
 70
     0
  9
$MAXACTVP
 70
    48
  9
$PINSBASE
 10
0.0
 20
0.0
 30
0.0
  9
$PLIMCHECK
 70
     0
  9
$PEXTMIN
 10
-0.015512739179826
 20
-0.0009295723639866
 30
-0.0015258207003583
  9
$PEXTMAX
 10
285.0127821911737
 20
198.0024830105826
 30
0.0000000349246037
  9
$PLIMMIN
 10
-5.873748779296875
 20
-5.873749732971191
  9
$PLIMMAX
 10
291.05224609375
 20
204.0995779037475
  9
$UNITMODE
 70
     0
  9
$VISRETAIN
 70
     1
  9
$PLINEGEN
 70
     0
  9
$PSLTSCALE
 70
     1
  9
$TREEDEPTH
 70
  3020
  9
$CMLSTYLE
  2
STANDARD
  9
$CMLJUST
 70
     0
  9
$CMLSCALE
 40
20.0
  9
$PROXYGRAPHICS
 70
     1
  9
$MEASUREMENT
 70
     1
  9
$CELWEIGHT
370
    -1
  9
$ENDCAPS
280
     0
  9
$JOINSTYLE
280
     0
  9
$LWDISPLAY
290
     1
  9
$INSUNITS
 70
     0
  9
$HYPERLINKBASE
  1

  9
$STYLESHEET
  1

  9
$XEDIT
290
     1
  9
$CEPSNTYPE
380
     0
  9
$PSTYLEMODE
290
     1
  9
$FINGERPRINTGUID
  2
{778B7AA4-961B-11D4-A809-0000F45A11F6}
  9
$VERSIONGUID
  2
{35D77BBD-A4A7-4B9C-BC32-24CAB15E1EB7}
  9
$EXTNAMES
290
     1
  9
$PSVPSCALE
 40
0.0
  9
$OLESTARTUP
290
     0
  0
ENDSEC
  0
SECTION
  2
CLASSES
  0
CLASS
  1
LWPOLYLINE
  2
AcDbPolyline
  3
AutoCAD 2000
 90
    32768
280
     0
281
     1
  0
CLASS
  1
ACDBDICTIONARYWDFLT
  2
AcDbDictionaryWithDefault
  3
AutoCAD 2000
 90
        0
280
     0
281
     0
  0
CLASS
  1
ACDBPLACEHOLDER
  2
AcDbPlaceHolder
  3
AutoCAD 2000
 90
        0
280
     0
281
     0
  0
CLASS
  1
LAYOUT
  2
AcDbLayout
  3
AutoCAD 2000
 90
        0
280
     0
281
     0
  0
ENDSEC
  0
SECTION
  2
TABLES
  0
TABLE
  2
VPORT
  5
8
330
0
100
AcDbSymbolTable
 70
     5
  0
VPORT
  5
18E2
330
8
100
AcDbSymbolTableRecord
100
AcDbViewportTableRecord
  2
*Active
 70
     0
 10
0.0
 20
0.0
 11
1.0
 21
1.0
 12
325.1200730643684
 22
176.2327238394056
 13
0.0
 23
0.0
 14
1.0
 24
1.0
 15
10.0
 25
10.0
 16
0.0
 26
0.0
 36
1.0
 17
0.0
 27
0.0
 37
0.0
 40
371.6186181727805
 41
1.897058823529411
 42
50.0
 43
0.0
 44
0.0
 50
0.0
 51
0.0
 71
     0
 72
   100
 73
     1
 74
     1
 75
     0
 76
     0
 77
     0
 78
     0
281
     0
 65
     1
110
0.0
120
0.0
130
0.0
111
1.0
121
0.0
131
0.0
112
0.0
122
1.0
132
0.0
 79
     0
146
0.0
  0
ENDTAB
  0
TABLE
  2
LTYPE
  5
5
330
0
100
AcDbSymbolTable
 70
     2
  0
LTYPE
  5
12
330
5
100
AcDbSymbolTableRecord
100
AcDbLinetypeTableRecord
  2
BYBLOCK
 70
     0
  3

 72
    65
 73
     0
 40
0.0
  0
LTYPE
  5
13
330
5
100
AcDbSymbolTableRecord
100
AcDbLinetypeTableRecord
  2
BYLAYER
 70
     0
  3

 72
    65
 73
     0
 40
0.0
  0
LTYPE
  5
14
330
5
100
AcDbSymbolTableRecord
100
AcDbLinetypeTableRecord
  2
CONTINUOUS
 70
     0
  3
Solid line
 72
    65
 73
     0
 40
0.0
  0
LTYPE
  5
1825
330
5
100
AcDbSymbolTableRecord
100
AcDbLinetypeTableRecord
  2
4-中心線
 70
     0
  3
Center (.5x) ___ _ ___ _ ___ _ ___ _ ___ _ ___
 72
    65
 73
     4
 40
28.57499999999999
 49
19.05
 74
     0
 49
-3.174999999999999
 74
     0
 49
3.174999999999999
 74
     0
 49
-3.174999999999999
 74
     0
  0
ENDTAB
  0
TABLE
  2
LAYER
  5
2
102
{ACAD_XDICTIONARY
360
D9C
102
}
330
0
100
AcDbSymbolTable
 70
     5
  0
LAYER
  5
E
330
2
100
AcDbSymbolTableRecord
100
AcDbLayerTableRecord
  2
0
 70
     0
 62
     4
  6
CONTINUOUS
370
    -3
390
5E0
  0
LAYER
  5
21F
330
2
100
AcDbSymbolTableRecord
100
AcDbLayerTableRecord
  2
DEFPOINTS
 70
     0
 62
     9
  6
CONTINUOUS
290
     0
370
    -3
390
5E0
  0
LAYER
  5
508
330
2
100
AcDbSymbolTableRecord
100
AcDbLayerTableRecord
  2
X ﾋﾞｭｰ
 70
     0
 62
     2
  6
CONTINUOUS
290
     0
370
    35
390
5E0
  0
LAYER
  5
D98
330
2
100
AcDbSymbolTableRecord
100
AcDbLayerTableRecord
  2
1
 70
     0
 62
     5
  6
CONTINUOUS
370
    30
390
5E0
  0
LAYER
  5
D99
330
2
100
AcDbSymbolTableRecord
100
AcDbLayerTableRecord
  2
2
 70
     0
 62
     6
  6
CONTINUOUS
370
     9
390
5E0
  0
ENDTAB
  0
TABLE
  2
STYLE
  5
3
330
0
100
AcDbSymbolTable
 70
     5
  0
STYLE
  5
F
330
3
100
AcDbSymbolTableRecord
100
AcDbTextStyleTableRecord
  2
STANDARD
 70
     0
 40
0.0
 41
1.0
 50
0.0
 71
     0
 42
2.5
  3
txt.shx
  4
bigfont.shx
  0
STYLE
  5
4B4
330
3
100
AcDbSymbolTableRecord
100
AcDbTextStyleTableRecord
  2
ＭＳ明朝
 70
     0
 40
0.0
 41
1.0
 50
0.0
 71
     0
 42
2.5
  3
MS Mincho.ttf
  4

1001
ACAD
1000
MS Mincho
1071
    32785
  0
STYLE
  5
66E
330
3
100
AcDbSymbolTableRecord
100
AcDbTextStyleTableRecord
  2
MSｺﾞｼｯｸ
 70
     0
 40
0.0
 41
1.0
 50
0.0
 71
     0
 42
2.5
  3
MS Gothic.ttf
  4

1001
ACAD
1000
MS Gothic
1071
    32817
  0
STYLE
  5
D9A
330
3
100
AcDbSymbolTableRecord
100
AcDbTextStyleTableRecord
  2
ＭＳゴシック
 70
     0
 40
0.0
 41
1.0
 50
0.0
 71
     0
 42
2.5
  3
MS Gothic.ttf
  4

1001
ACAD
1000
MS Gothic
1071
    32817
  0
STYLE
  5
D9B
330
3
100
AcDbSymbolTableRecord
100
AcDbTextStyleTableRecord
  2
HG丸ｺﾞｼｯｸM-PRO
 70
     0
 40
0.0
 41
1.0
 50
0.0
 71
     0
 42
2.5
  3
HGRSMP.TTF
  4

1001
ACAD
1000
HGMaruGothicMPRO
1071
    32817
  0
ENDTAB
  0
TABLE
  2
VIEW
  5
6
330
0
100
AcDbSymbolTable
 70
     0
  0
ENDTAB
  0
TABLE
  2
UCS
  5
7
330
0
100
AcDbSymbolTable
 70
     0
  0
ENDTAB
  0
TABLE
  2
APPID
  5
9
330
0
100
AcDbSymbolTable
 70
     5
  0
APPID
  5
10
330
9
100
AcDbSymbolTableRecord
100
AcDbRegAppTableRecord
  2
ACAD
 70
     0
  0
APPID
  5
21
330
9
100
AcDbSymbolTableRecord
100
AcDbRegAppTableRecord
  2
CONTENTTABDATA
 70
     0
  0
APPID
  5
22
330
9
100
AcDbSymbolTableRecord
100
AcDbRegAppTableRecord
  2
CONTENTCURRENTTAB
 70
     0
  0
APPID
  5
137
330
9
100
AcDbSymbolTableRecord
100
AcDbRegAppTableRecord
  2
CONTENTBLOCKDESCRIPTION
 70
     0
  0
APPID
  5
186
330
9
100
AcDbSymbolTableRecord
100
AcDbRegAppTableRecord
  2
CONTENTBLOCKICON
 70
     0
  0
ENDTAB
  0
TABLE
  2
DIMSTYLE
  5
A
330
0
100
AcDbSymbolTable
 70
     1
100
AcDbDimStyleTable
 71
     1
340
1D
  0
DIMSTYLE
105
1D
102
{ACAD_REACTORS
330
1267
330
1268
330
1269
330
1363
330
13AB
330
1471
330
1484
330
1554
330
1839
330
183E
102
}
330
A
100
AcDbSymbolTableRecord
100
AcDbDimStyleTableRecord
  2
STANDARD
 70
     0
 40
0.0
 41
2.5
 42
1.5
 43
5.0
 44
1.25
 73
     0
 74
     0
 77
     1
 78
     8
140
2.5
141
-5.0
143
0.0394
147
0.5
171
     4
172
     1
271
     3
272
     3
273
     8
274
     4
277
     6
340
4B4
  0
ENDTAB
  0
TABLE
  2
BLOCK_RECORD
  5
1
330
0
100
AcDbSymbolTable
 70
    18
  0
BLOCK_RECORD
  5
18
330
1
100
AcDbSymbolTableRecord
100
AcDbBlockTableRecord
  2
*MODEL_SPACE
340
5E3
  0
BLOCK_RECORD
  5
692
330
1
100
AcDbSymbolTableRecord
100
AcDbBlockTableRecord
  2
*Paper_Space
340
693
  0
BLOCK_RECORD
  5
C74
330
1
100
AcDbSymbolTableRecord
100
AcDbBlockTableRecord
  2
M3ｾﾑｽSIDE
340
0
310
2800000020000000200000000100040000000000000200000000000000000000000000000000000000000000000080000080000000808000800000008000800080800000C0C0C000808080000000FF0000FF000000FFFF00FF000000FF00FF00FFFF0000FFFFFF00FFFFFFFFFF00000000FFFFFFFFFFFFFFFFFFFFFF00FF0F
310
FFFF000FFFFFFFFFFFFFFFFFF0FFFF0FFFFFFFF0FFFFFFFFFFFFFFFFF0FFFF0FFFFFFFFF00FFFFFFFFFFFFFFF0FFFF0FFFFFFFFFFF0FFFFFFFFFFFFFF0FFFF0FFFFFFFFFFF0FFFFFFFFFFFFFF0FFFF0FFFFFFFFFFF0FFFFFFFFFFFFFF0FFFF0FFFFFFFFFFFF0FFFFFFFFFFFFF0FFFF0FFFFFFFFFFFF0FFFFFFFFFFFFF0FFFF
310
0FFFFFFFFFFFFFFFFFFFFFFFFFF0FFFF0FFFFFFFFFFFF0FFFFFFFFFFFFF0FFFF0FFFFFFFFFFFF0FFFFFFFFFFFFF0FFFF0FFFFFFFFFFFF0FFFFFFFFFFFFF0FFFF0FFFFFFFFFFFF0FFFFFFFFFFFFF00FFF0FFFFFFFFFFFF0FFFFFFFFFFFFF0F0FF0FFFFFFFFFFFF0FFFFFFFFFFFFF0FF0F0FFFFFFFFFFFF0FFFFFFFFFFFFF0FF
310
F00FFFFFFFFFFFF0FFFFFFFFFFFFF0FFFF0FFFFFFFFFFFF0FFFFFFFFFFFFF0FFFF0FFFFFFFFFFFF0FFFFFFFFFFFFF0FFFF0FFFFFFFFFFFF0FFFFFFFFFFFFF0FFFF0FFFFFFFFFFFF0FFFFFFFFFFFFF0FFFF0FFFFFFFFFFFF0FFFFFFFFFFFFF0FFFF0FFFFFFFFFFFF0FFFFFFFFFFFFF0FFFF0FFFFFFFFFFFF0FFFFFFFFFFFFF0
310
FFFF0FFFFFFFFFFF0FFFFFFFFFFFFFF0FFFF0FFFFFFFFFFF0FFFFFFFFFFFFFF0FFFF0FFFFFFFFFFF0FFFFFFFFFFFFFF0FFFF0FFFFFFFFFF0FFFFFFFFFFFFFFFF0FFF0FFFFFFFF00FFFFFFFFFFFFFFFFF0FFF0FFFFFF00FFFFFFFFFFFFFFFFFFFF0000000F00FFFFFFFFFFFFF
102
{BLKREFS
331
146A
102
}
  0
BLOCK_RECORD
  5
C81
330
1
100
AcDbSymbolTableRecord
100
AcDbBlockTableRecord
  2
A$C35D25C1A
340
0
102
{BLKREFS
331
13AA
102
}
  0
BLOCK_RECORD
  5
D05
330
1
100
AcDbSymbolTableRecord
100
AcDbBlockTableRecord
  2
A$C0EE84D96
340
0
102
{BLKREFS
331
15BB
102
}
  0
BLOCK_RECORD
  5
D0C
330
1
100
AcDbSymbolTableRecord
100
AcDbBlockTableRecord
  2
NIPPO-1
340
0
310
2800000020000000200000000100080000000000000400000000000000000000000000000000000000000000000080000080000000808000800000008000800080800000C0C0C000C0DCC000F0CAA6000020400000206000002080000020A0000020C0000020E00000400000004020000040400000406000004080000040A0
310
000040C0000040E00000600000006020000060400000606000006080000060A0000060C0000060E00000800000008020000080400000806000008080000080A0000080C0000080E00000A0000000A0200000A0400000A0600000A0800000A0A00000A0C00000A0E00000C0000000C0200000C0400000C0600000C0800000C0
310
A00000C0C00000C0E00000E0000000E0200000E0400000E0600000E0800000E0A00000E0C00000E0E00040000000400020004000400040006000400080004000A0004000C0004000E00040200000402020004020400040206000402080004020A0004020C0004020E000404000004040200040404000404060004040800040
310
40A0004040C0004040E00040600000406020004060400040606000406080004060A0004060C0004060E00040800000408020004080400040806000408080004080A0004080C0004080E00040A0000040A0200040A0400040A0600040A0800040A0A00040A0C00040A0E00040C0000040C0200040C0400040C0600040C08000
310
40C0A00040C0C00040C0E00040E0000040E0200040E0400040E0600040E0800040E0A00040E0C00040E0E00080000000800020008000400080006000800080008000A0008000C0008000E00080200000802020008020400080206000802080008020A0008020C0008020E00080400000804020008040400080406000804080
310
008040A0008040C0008040E00080600000806020008060400080606000806080008060A0008060C0008060E00080800000808020008080400080806000808080008080A0008080C0008080E00080A0000080A0200080A0400080A0600080A0800080A0A00080A0C00080A0E00080C0000080C0200080C0400080C0600080C0
310
800080C0A00080C0C00080C0E00080E0000080E0200080E0400080E0600080E0800080E0A00080E0C00080E0E000C0000000C0002000C0004000C0006000C0008000C000A000C000C000C000E000C0200000C0202000C0204000C0206000C0208000C020A000C020C000C020E000C0400000C0402000C0404000C0406000C0
310
408000C040A000C040C000C040E000C0600000C0602000C0604000C0606000C0608000C060A000C060C000C060E000C0800000C0802000C0804000C0806000C0808000C080A000C080C000C080E000C0A00000C0A02000C0A04000C0A06000C0A08000C0A0A000C0A0C000C0A0E000C0C00000C0C02000C0C04000C0C06000
310
C0C08000C0C0A000F0FBFF00A4A0A000808080000000FF0000FF000000FFFF00FF000000FF00FF00FFFF0000FFFFFF00FFFFFFFFFFFFFFFFFFFFFFFFFFFFFFFFFFFFFFFFFFFFFFFFFFFFFFFFFFFFFFFFFFFFFFFFFFFFFFFFFFFFFFFFFFFFFFFFFFFFFFFFFFFFFFFFFFFFFFFFFFFFFFFFFFFFFFFFFFFFFFFFFFFFFFFFFFFFFF
310
FFFFFFFFFFFFFFFFFFFFFFFFFFFFFFFFFFFFFFFFFFFFFFFFFFFFFFFFFFFFFFFFFFFFFFFFFFFFFFFFFFFFFFFFFFFFFFFFFFFFFFFFFFFFFFFFFFFFFFFFFFFFFFFFFFFFFFFFFFFFFFFFFFFFFFFFFFFFFFFFFFFFFFFFFFFFFFFFFFFFFFFFFFFFFFFFFFFFFFFFFFFFFFFFFFFFFFFFFFFFFFFFFFFFFFFFFFFFFFFFFFFFFFFFFFFFFF
310
FFFFFFFFFFFFFFFFFFFFFFFFFFFFFFFFFFFFFFFFFFFFFFFFFFFFFFFFFFFFFFFFFFFFFFFFFFFFFFFFFFFFFFFFFFFFFFFFFFFFFFFFFFFFFFFFFFFFFFFF00FFFFFFFFFFFF00FFFFFFFFFFFFFFFFFFFFFFFFFFFFFFFFFFFFFFFFFFFFFFFF000000FFFFFFFF0000FFFFFFFFFFFFFFFFFFFFFFFFFFFFFFFFFFFFFFFFFFFFFF00FF00
310
FFFFFFFF0000FFFFFFFFFFFFFFFFFFFFFFFFFFFFFFFFFFFFFFFFFFFFFF00FF00FFFFFFFF0000FFFFFFFFFFFFFFFFFFFFFFFFFFFF000000FFFF0000000000FF000000FFFF00000000FFFFFFFF00000000FFFFFFFF00FF00FFFF0000000000FFFFFF0000FF00FFFF0000FFFF0000FF00FF00FFFFFF00FF00FFFF0000000000FF
310
000000000000000000000000FF0000000000FFFFFF00FF00FFFF0000000000FF00000000000000000000000000000000000000FFFF00FF00FFFF0000000000FF000000000000000000000000FF00FF0000FF00FFFF00FF0000000000000000FF00000000000000000000000000000000FF00FFFFFF00FFFFFFFF0000000000
310
FFFFFF0000FF00FFFF0000FFFF0000FF000000FFFFFF0000000000FFFF00000000000000FFFF00000000FFFFFFFF00000000FFFFFFFFFFFFFFFFFFFFFFFF00FFFFFFFFFFFFFFFFFFFFFFFFFFFFFFFFFFFFFFFFFFFFFFFFFFFFFFFFFFFF00FF00FFFFFFFFFFFFFFFFFFFFFFFFFFFFFFFFFFFFFFFFFFFFFFFFFFFFFFFFFFFF00
310
00FFFFFFFFFFFFFFFFFFFFFFFFFFFFFFFFFFFFFFFFFFFFFFFFFFFFFFFFFFFF00FFFFFFFFFFFFFFFFFFFFFFFFFFFFFFFFFFFFFFFFFFFFFFFFFFFFFFFFFFFFFFFFFFFFFFFFFFFFFFFFFFFFFFFFFFFFFFFFFFFFFFFFFFFFFFFFFFFFFFFFFFFFFFFFFFFFFFFFFFFFFFFFFFFFFFFFFFFFFFFFFFFFFFFFFFFFFFFFFFFFFFFFFFFFFF
310
FFFFFFFFFFFFFFFFFFFFFFFFFFFFFFFFFFFFFFFFFFFFFFFFFFFFFFFFFFFFFFFFFFFFFFFFFFFFFFFFFFFFFFFFFFFFFFFFFFFFFFFFFFFFFFFFFFFFFFFFFFFFFFFFFFFFFFFFFFFFFFFFFFFFFFFFFFFFFFFFFFFFFFFFFFFFFFFFFFFFFFFFFFFFFFFFFFFFFFFFFFFFFFFFFFFFFFFFFFFFFFFFFFFFFFFFFFFFFFFFFFFFFFFFFFFFFF
310
FFFFFFFFFFFFFFFFFFFFFFFFFFFFFFFFFFFFFFFFFFFFFFFFFFFFFFFFFFFFFFFFFFFFFFFFFFFFFFFFFFFFFFFFFFFFFFFFFFFFFFFFFFFFFFFF
102
{BLKREFS
331
1410
102
}
  0
BLOCK_RECORD
  5
172A
330
1
100
AcDbSymbolTableRecord
100
AcDbBlockTableRecord
  2
*D4
340
0
  0
BLOCK_RECORD
  5
1736
330
1
100
AcDbSymbolTableRecord
100
AcDbBlockTableRecord
  2
*D5
340
0
  0
BLOCK_RECORD
  5
1744
330
1
100
AcDbSymbolTableRecord
100
AcDbBlockTableRecord
  2
*D6
340
0
  0
BLOCK_RECORD
  5
1750
330
1
100
AcDbSymbolTableRecord
100
AcDbBlockTableRecord
  2
*D7
340
0
  0
BLOCK_RECORD
  5
175C
330
1
100
AcDbSymbolTableRecord
100
AcDbBlockTableRecord
  2
*D8
340
0
  0
BLOCK_RECORD
  5
1768
330
1
100
AcDbSymbolTableRecord
100
AcDbBlockTableRecord
  2
*D9
340
0
  0
BLOCK_RECORD
  5
1774
330
1
100
AcDbSymbolTableRecord
100
AcDbBlockTableRecord
  2
*D10
340
0
  0
BLOCK_RECORD
  5
1780
330
1
100
AcDbSymbolTableRecord
100
AcDbBlockTableRecord
  2
*D11
340
0
  0
BLOCK_RECORD
  5
180D
330
1
100
AcDbSymbolTableRecord
100
AcDbBlockTableRecord
  2
*D13
340
0
  0
BLOCK_RECORD
  5
1819
330
1
100
AcDbSymbolTableRecord
100
AcDbBlockTableRecord
  2
*D14
340
0
  0
BLOCK_RECORD
  5
1848
330
1
100
AcDbSymbolTableRecord
100
AcDbBlockTableRecord
  2
*D16
340
0
  0
BLOCK_RECORD
  5
1854
330
1
100
AcDbSymbolTableRecord
100
AcDbBlockTableRecord
  2
*D17
340
0
  0
ENDTAB
  0
ENDSEC
  0
SECTION
  2
BLOCKS
  0
BLOCK
  5
19
330
18
100
AcDbEntity
  8
0
100
AcDbBlockBegin
  2
*MODEL_SPACE
 70
     0
 10
0.0
 20
0.0
 30
0.0
  3
*MODEL_SPACE
  1

  0
ENDBLK
  5
1A
330
18
100
AcDbEntity
  8
0
100
AcDbBlockEnd
  0
BLOCK
  5
694
330
692
100
AcDbEntity
 67
     1
  8
0
100
AcDbBlockBegin
  2
*Paper_Space
 70
     0
 10
0.0
 20
0.0
 30
0.0
  3
*Paper_Space
  1

  0
ENDBLK
  5
695
330
692
100
AcDbEntity
 67
     1
  8
0
100
AcDbBlockEnd
  0
BLOCK
  5
C7F
330
C74
100
AcDbEntity
  8
0
100
AcDbBlockBegin
  2
M3ｾﾑｽSIDE
 70
     0
 10
0.0
 20
0.0
 30
0.0
  3
M3ｾﾑｽSIDE
  1

  4
Ｍ３セムス SIDE VIEW
  0
LINE
  5
C75
330
C74
100
AcDbEntity
  8
0
  6
ByBlock
 62
     0
100
AcDbLine
 10
0.5
 20
2.599999999999994
 30
0.0
 11
1.499999999999943
 21
2.599999999999994
 31
0.0
  0
LINE
  5
C76
330
C74
100
AcDbEntity
  8
0
  6
ByBlock
 62
     0
100
AcDbLine
 10
0.0
 20
-0.4000000000000057
 30
0.0
 11
0.8000000000000113
 21
0.4000000000000057
 31
0.0
  0
LINE
  5
C77
330
C74
100
AcDbEntity
  8
0
  6
ByBlock
 62
     0
100
AcDbLine
 10
0.5
 20
-2.59999999999998
 30
0.0
 11
1.5
 21
-2.59999999999998
 31
0.0
  0
LINE
  5
C78
330
C74
100
AcDbEntity
  8
0
  6
ByBlock
 62
     0
100
AcDbLine
 10
0.0
 20
2.099999999999994
 30
0.0
 11
0.0
 21
-2.09999999999998
 31
0.0
  0
ARC
  5
C79
330
C74
100
AcDbEntity
  8
0
  6
ByBlock
 62
     0
100
AcDbCircle
 10
0.5
 20
-2.09999999999998
 30
0.0
 40
0.5
100
AcDbArc
 50
180.0
 51
270.0000000000005
  0
ARC
  5
C7A
330
C74
100
AcDbEntity
  8
0
  6
ByBlock
 62
     0
100
AcDbCircle
 10
0.5
 20
2.099999999999994
 30
0.0
 40
0.5
100
AcDbArc
 50
90.0
 51
180.0
  0
LINE
  5
C7B
330
C74
100
AcDbEntity
  8
0
  6
ByBlock
 62
     0
100
AcDbLine
 10
2.999999999999943
 20
1.099999999999994
 30
0.0
 11
3.0
 21
-1.099999999999951
 31
0.0
  0
LINE
  5
C7C
330
C74
100
AcDbEntity
  8
0
  6
ByBlock
 62
     0
100
AcDbLine
 10
0.8000000000000113
 20
2.600000000000008
 30
0.0
 11
0.8000000000000113
 21
-2.600000000000008
 31
0.0
  0
ARC
  5
C7D
330
C74
100
AcDbEntity
  8
0
  6
ByBlock
 62
     0
100
AcDbCircle
 10
1.5
 20
-1.09999999999998
 30
0.0
 40
1.5
100
AcDbArc
 50
270.0
 51
0.0000000000008778
  0
ARC
  5
C7E
330
C74
100
AcDbEntity
  8
0
  6
ByBlock
 62
     0
100
AcDbCircle
 10
1.499999999999943
 20
1.099999999999994
 30
0.0
 40
1.5
100
AcDbArc
 50
0.0
 51
90.0000000000003
  0
ENDBLK
  5
C80
330
C74
100
AcDbEntity
  8
0
100
AcDbBlockEnd
  0
BLOCK
  5
D03
330
C81
100
AcDbEntity
  8
0
100
AcDbBlockBegin
  2
A$C35D25C1A
 70
     0
 10
0.0
 20
0.0
 30
0.0
  3
A$C35D25C1A
  1

  0
LINE
  5
C82
330
C81
100
AcDbEntity
  8
0
  6
ByBlock
 62
     0
100
AcDbLine
 10
-27.83763572545089
 20
-10.34696155060242
 30
0.0
 11
-28.38305048571612
 21
-9.696961550602424
 31
0.0
  0
LINE
  5
C83
330
C81
100
AcDbEntity
  8
0
  6
ByBlock
 62
     0
100
AcDbLine
 10
-29.15769032090236
 20
-10.34696155060242
 30
0.0
 11
-28.38305048571612
 21
-9.696961550602424
 31
0.0
  0
LINE
  5
C84
330
C81
100
AcDbEntity
  8
0
  6
ByBlock
 62
     0
100
AcDbLine
 10
-22.1409940250854
 20
-10.34696155060242
 30
0.0
 11
-22.68640878535063
 21
-9.696961550602424
 31
0.0
  0
LINE
  5
C85
330
C81
100
AcDbEntity
  8
0
  6
ByBlock
 62
     0
100
AcDbLine
 10
-22.68640878535063
 20
-9.696961550602424
 30
0.0
 11
-23.46104862053687
 21
-10.34696155060242
 31
0.0
  0
LINE
  5
C86
330
C81
100
AcDbEntity
  8
0
  6
ByBlock
 62
     0
100
AcDbLine
 10
-34.6409940250854
 20
-10.34696155060242
 30
0.0
 11
-35.18640878535063
 21
-9.696961550602424
 31
0.0
  0
LINE
  5
C87
330
C81
100
AcDbEntity
  8
0
  6
ByBlock
 62
     0
100
AcDbLine
 10
-35.18640878535063
 20
-9.696961550602424
 30
0.0
 11
-35.96104862053687
 21
-10.34696155060242
 31
0.0
  0
LINE
  5
C88
330
C81
100
AcDbEntity
  8
0
  6
ByBlock
 62
     0
100
AcDbLine
 10
-4.157690320902361
 20
-10.34696155060242
 30
0.0
 11
-3.383050485716125
 21
-9.696961550602424
 31
0.0
  0
LINE
  5
C89
330
C81
100
AcDbEntity
  8
0
  6
ByBlock
 62
     0
100
AcDbLine
 10
-2.837635725450894
 20
-10.34696155060242
 30
0.0
 11
-3.383050485716125
 21
-9.696961550602424
 31
0.0
  0
LINE
  5
C8A
330
C81
100
AcDbEntity
  8
0
  6
ByBlock
 62
     0
100
AcDbLine
 10
-9.640994025085404
 20
-10.34696155060242
 30
0.0
 11
-10.18640878535063
 21
-9.696961550602424
 31
0.0
  0
LINE
  5
C8B
330
C81
100
AcDbEntity
  8
0
  6
ByBlock
 62
     0
100
AcDbLine
 10
-10.18640878535063
 20
-9.696961550602424
 30
0.0
 11
-10.96104862053687
 21
-10.34696155060242
 31
0.0
  0
LINE
  5
C8C
330
C81
100
AcDbEntity
  8
0
  6
ByBlock
 62
     0
100
AcDbLine
 10
-16.65769032090236
 20
-10.34696155060242
 30
0.0
 11
-15.88305048571612
 21
-9.696961550602424
 31
0.0
  0
LINE
  5
C8D
330
C81
100
AcDbEntity
  8
0
  6
ByBlock
 62
     0
100
AcDbLine
 10
-15.33763572545089
 20
-10.34696155060242
 30
0.0
 11
-15.88305048571612
 21
-9.696961550602424
 31
0.0
  0
LINE
  5
C8E
330
C81
100
AcDbEntity
  8
0
  6
ByBlock
 62
     0
100
AcDbLine
 10
-22.1409940250854
 20
-10.34696155060242
 30
0.0
 11
-22.98843505370265
 21
-15.15303844939754
 31
0.0
  0
LINE
  5
C8F
330
C81
100
AcDbEntity
  8
0
  6
ByBlock
 62
     0
100
AcDbLine
 10
-16.94903146452253
 20
-16.64999999999997
 30
0.0
 11
-24.07244435960851
 21
-16.64999999999997
 31
0.0
  0
LINE
  5
C90
330
C81
100
AcDbEntity
  8
0
  6
ByBlock
 62
     0
100
AcDbLine
 10
-17.73986098505298
 20
-15.34999999999996
 30
0.0
 11
-22.82316468923605
 21
-15.34999999999996
 31
0.0
  0
LINE
  5
C91
330
C81
100
AcDbEntity
  8
0
  6
ByBlock
 62
     0
100
AcDbLine
 10
-34.6409940250854
 20
-10.34696155060242
 30
0.0
 11
-35.48843505370266
 21
-15.15303844939754
 31
0.0
  0
LINE
  5
C92
330
C81
100
AcDbEntity
  8
0
  6
ByBlock
 62
     0
100
AcDbLine
 10
-30.23986098505298
 20
-15.34999999999996
 30
0.0
 11
-35.32316468923605
 21
-15.34999999999996
 31
0.0
  0
LINE
  5
C93
330
C81
100
AcDbEntity
  8
0
  6
ByBlock
 62
     0
100
AcDbLine
 10
-29.15769032090236
 20
-10.34696155060242
 30
0.0
 11
-30.00513134951961
 21
-15.15303844939754
 31
0.0
  0
LINE
  5
C94
330
C81
100
AcDbEntity
  8
0
  6
ByBlock
 62
     0
100
AcDbLine
 10
-24.19639713295845
 20
-16.50227883704815
 30
0.0
 11
-24.07244435960851
 21
-16.64999999999997
 31
0.0
  0
LINE
  5
C95
330
C81
100
AcDbEntity
  8
0
  6
ByBlock
 62
     0
100
AcDbLine
 10
-24.48562027077503
 20
-16.15759612349387
 30
0.0
 11
-24.36166749742509
 21
-16.30531728644572
 31
0.0
  0
LINE
  5
C96
330
C81
100
AcDbEntity
  8
0
  6
ByBlock
 62
     0
100
AcDbLine
 10
-29.27298423787249
 20
-16.50227883704818
 30
0.0
 11
-29.44903146452253
 21
-16.64999999999997
 31
0.0
  0
LINE
  5
C97
330
C81
100
AcDbEntity
  8
0
  6
ByBlock
 62
     0
100
AcDbLine
 10
-28.86220737568908
 20
-16.15759612349387
 30
0.0
 11
-29.03825460233912
 21
-16.30531728644572
 31
0.0
  0
LINE
  5
C98
330
C81
100
AcDbEntity
  8
0
  6
ByBlock
 62
     0
100
AcDbLine
 10
-36.69639713295845
 20
-16.50227883704815
 30
0.0
 11
-36.57244435960851
 21
-16.64999999999997
 31
0.0
  0
LINE
  5
C99
330
C81
100
AcDbEntity
  8
0
  6
ByBlock
 62
     0
100
AcDbLine
 10
-36.98562027077503
 20
-16.15759612349387
 30
0.0
 11
-36.86166749742509
 21
-16.30531728644572
 31
0.0
  0
LINE
  5
C9A
330
C81
100
AcDbEntity
  8
0
  6
ByBlock
 62
     0
100
AcDbLine
 10
-29.44903146452253
 20
-16.64999999999997
 30
0.0
 11
-36.57244435960851
 21
-16.64999999999997
 31
0.0
  0
LINE
  5
C9B
330
C81
100
AcDbEntity
  8
0
  6
ByBlock
 62
     0
100
AcDbLine
 10
-27.83763572545089
 20
-10.34696155060242
 30
0.0
 11
-28.86220737568908
 21
-16.15759612349387
 31
0.0
  0
LINE
  5
C9C
330
C81
100
AcDbEntity
  8
0
  6
ByBlock
 62
     0
100
AcDbLine
 10
-36.69639713295845
 20
-16.50227883704815
 30
0.0
 11
-35.32316468923602
 21
-15.34999999999999
 31
0.0
  0
LINE
  5
C9D
330
C81
100
AcDbEntity
  8
0
  6
ByBlock
 62
     0
100
AcDbLine
 10
-29.27298423787249
 20
-16.50227883704815
 30
0.0
 11
-30.23986098505298
 21
-15.34999999999999
 31
0.0
  0
LINE
  5
C9E
330
C81
100
AcDbEntity
  8
0
  6
ByBlock
 62
     0
100
AcDbLine
 10
-36.86166749742509
 20
-16.30531728644572
 30
0.0
 11
-35.48843505370266
 21
-15.15303844939754
 31
0.0
  0
LINE
  5
C9F
330
C81
100
AcDbEntity
  8
0
  6
ByBlock
 62
     0
100
AcDbLine
 10
-35.96104862053687
 20
-10.34696155060242
 30
0.0
 11
-36.98562027077505
 21
-16.15759612349387
 31
0.0
  0
LINE
  5
CA0
330
C81
100
AcDbEntity
  8
0
  6
ByBlock
 62
     0
100
AcDbLine
 10
-29.03825460233912
 20
-16.30531728644569
 30
0.0
 11
-30.00513134951961
 21
-15.15303844939754
 31
0.0
  0
LINE
  5
CA1
330
C81
100
AcDbEntity
  8
0
  6
ByBlock
 62
     0
100
AcDbLine
 10
-24.19639713295845
 20
-16.50227883704815
 30
0.0
 11
-22.82316468923602
 21
-15.34999999999999
 31
0.0
  0
CIRCLE
  5
CA2
330
C81
100
AcDbEntity
  8
0
  6
ByBlock
 62
     0
100
AcDbCircle
 10
-27.06926991469117
 20
-16.14434127825745
 30
0.0
 40
0.65
  0
LINE
  5
CA3
330
C81
100
AcDbEntity
  8
0
  6
ByBlock
 62
     0
100
AcDbLine
 10
-23.46104862053687
 20
-10.34696155060242
 30
0.0
 11
-24.48562027077505
 21
-16.15759612349387
 31
0.0
  0
LINE
  5
CA4
330
C81
100
AcDbEntity
  8
0
  6
ByBlock
 62
     0
100
AcDbLine
 10
-24.36166749742509
 20
-16.30531728644572
 30
0.0
 11
-22.98843505370265
 21
-15.15303844939754
 31
0.0
  0
LINE
  5
CA5
330
C81
100
AcDbEntity
  8
0
  6
ByBlock
 62
     0
100
AcDbLine
 10
-4.449031464522533
 20
-16.64999999999997
 30
0.0
 11
-11.57244435960851
 21
-16.64999999999997
 31
0.0
  0
LINE
  5
CA6
330
C81
100
AcDbEntity
  8
0
  6
ByBlock
 62
     0
100
AcDbLine
 10
-5.239860985052985
 20
-15.34999999999996
 30
0.0
 11
-10.32316468923605
 21
-15.34999999999996
 31
0.0
  0
LINE
  5
CA7
330
C81
100
AcDbEntity
  8
0
  6
ByBlock
 62
     0
100
AcDbLine
 10
-9.640994025085404
 20
-10.34696155060242
 30
0.0
 11
-10.48843505370266
 21
-15.15303844939754
 31
0.0
  0
LINE
  5
CA8
330
C81
100
AcDbEntity
  8
0
  6
ByBlock
 62
     0
100
AcDbLine
 10
-16.65769032090236
 20
-10.34696155060242
 30
0.0
 11
-17.50513134951961
 21
-15.15303844939754
 31
0.0
  0
LINE
  5
CA9
330
C81
100
AcDbEntity
  8
0
  6
ByBlock
 62
     0
100
AcDbLine
 10
-11.98562027077503
 20
-16.15759612349387
 30
0.0
 11
-11.86166749742508
 21
-16.30531728644572
 31
0.0
  0
LINE
  5
CAA
330
C81
100
AcDbEntity
  8
0
  6
ByBlock
 62
     0
100
AcDbLine
 10
-11.69639713295845
 20
-16.50227883704815
 30
0.0
 11
-11.57244435960851
 21
-16.64999999999997
 31
0.0
  0
LINE
  5
CAB
330
C81
100
AcDbEntity
  8
0
  6
ByBlock
 62
     0
100
AcDbLine
 10
-16.77298423787249
 20
-16.50227883704818
 30
0.0
 11
-16.94903146452253
 21
-16.64999999999997
 31
0.0
  0
LINE
  5
CAC
330
C81
100
AcDbEntity
  8
0
  6
ByBlock
 62
     0
100
AcDbLine
 10
-16.36220737568908
 20
-16.15759612349387
 30
0.0
 11
-16.53825460233912
 21
-16.30531728644572
 31
0.0
  0
LINE
  5
CAD
330
C81
100
AcDbEntity
  8
0
  6
ByBlock
 62
     0
100
AcDbLine
 10
-11.86166749742508
 20
-16.30531728644572
 30
0.0
 11
-10.48843505370266
 21
-15.15303844939754
 31
0.0
  0
LINE
  5
CAE
330
C81
100
AcDbEntity
  8
0
  6
ByBlock
 62
     0
100
AcDbLine
 10
-10.96104862053687
 20
-10.34696155060242
 30
0.0
 11
-11.98562027077505
 21
-16.15759612349387
 31
0.0
  0
CIRCLE
  5
CAF
330
C81
100
AcDbEntity
  8
0
  6
ByBlock
 62
     0
100
AcDbCircle
 10
-14.56926991469117
 20
-16.14434127825745
 30
0.0
 40
0.65
  0
LINE
  5
CB0
330
C81
100
AcDbEntity
  8
0
  6
ByBlock
 62
     0
100
AcDbLine
 10
-16.77298423787249
 20
-16.50227883704815
 30
0.0
 11
-17.73986098505298
 21
-15.34999999999999
 31
0.0
  0
LINE
  5
CB1
330
C81
100
AcDbEntity
  8
0
  6
ByBlock
 62
     0
100
AcDbLine
 10
-15.33763572545089
 20
-10.34696155060242
 30
0.0
 11
-16.36220737568908
 21
-16.15759612349387
 31
0.0
  0
LINE
  5
CB2
330
C81
100
AcDbEntity
  8
0
  6
ByBlock
 62
     0
100
AcDbLine
 10
-16.53825460233912
 20
-16.30531728644569
 30
0.0
 11
-17.50513134951961
 21
-15.15303844939754
 31
0.0
  0
LINE
  5
CB3
330
C81
100
AcDbEntity
  8
0
  6
ByBlock
 62
     0
100
AcDbLine
 10
-11.69639713295845
 20
-16.50227883704815
 30
0.0
 11
-10.32316468923602
 21
-15.34999999999999
 31
0.0
  0
LINE
  5
CB4
330
C81
100
AcDbEntity
  8
0
  6
ByBlock
 62
     0
100
AcDbLine
 10
-4.157690320902361
 20
-10.34696155060242
 30
0.0
 11
-5.005131349519615
 21
-15.15303844939754
 31
0.0
  0
LINE
  5
CB5
330
C81
100
AcDbEntity
  8
0
  6
ByBlock
 62
     0
100
AcDbLine
 10
-4.272984237872492
 20
-16.50227883704818
 30
0.0
 11
-4.449031464522533
 21
-16.64999999999997
 31
0.0
  0
LINE
  5
CB6
330
C81
100
AcDbEntity
  8
0
  6
ByBlock
 62
     0
100
AcDbLine
 10
-3.862207375689081
 20
-16.15759612349387
 30
0.0
 11
-4.038254602339122
 21
-16.30531728644572
 31
0.0
  0
LINE
  5
CB7
330
C81
100
AcDbEntity
  8
0
  6
ByBlock
 62
     0
100
AcDbLine
 10
-4.272984237872492
 20
-16.50227883704815
 30
0.0
 11
-5.239860985052985
 21
-15.34999999999999
 31
0.0
  0
CIRCLE
  5
CB8
330
C81
100
AcDbEntity
  8
0
  6
ByBlock
 62
     0
100
AcDbCircle
 10
-2.069269914691176
 20
-16.14434127825745
 30
0.0
 40
0.65
  0
LINE
  5
CB9
330
C81
100
AcDbEntity
  8
0
  6
ByBlock
 62
     0
100
AcDbLine
 10
-2.837635725450894
 20
-10.34696155060242
 30
0.0
 11
-3.862207375689081
 21
-16.15759612349387
 31
0.0
  0
LINE
  5
CBA
330
C81
100
AcDbEntity
  8
0
  6
ByBlock
 62
     0
100
AcDbLine
 10
-4.038254602339122
 20
-16.30531728644569
 30
0.0
 11
-5.005131349519615
 21
-15.15303844939754
 31
0.0
  0
LINE
  5
CBB
330
C81
100
AcDbEntity
  8
0
  6
ByBlock
 62
     0
100
AcDbLine
 10
-21.90626438955203
 20
-10.14999999999997
 30
0.0
 11
-22.45167914981726
 21
-9.5
 31
0.0
  0
LINE
  5
CBC
330
C81
100
AcDbEntity
  8
0
  6
ByBlock
 62
     0
100
AcDbLine
 10
-22.13779262431092
 20
-2.842403876506068
 30
0.0
 11
-23.1623642745491
 21
-8.65303844939757
 31
0.0
  0
LINE
  5
CBD
330
C81
100
AcDbEntity
  8
0
  6
ByBlock
 62
     0
100
AcDbLine
 10
-21.84230967909763
 20
-8.653038449397541
 30
0.0
 11
-22.61694951428387
 21
-9.303038449397547
 31
0.0
  0
LINE
  5
CBE
330
C81
100
AcDbEntity
  8
0
  6
ByBlock
 62
     0
100
AcDbLine
 10
-21.67703931463103
 20
-8.849999999999994
 30
0.0
 11
-22.45167914981726
 21
-9.5
 31
0.0
  0
LINE
  5
CBF
330
C81
100
AcDbEntity
  8
0
  6
ByBlock
 62
     0
100
AcDbLine
 10
-28.31359121464936
 20
-9.303038449397547
 30
0.0
 11
-27.53895137946313
 21
-8.653038449397541
 31
0.0
  0
LINE
  5
CC0
330
C81
100
AcDbEntity
  8
0
  6
ByBlock
 62
     0
100
AcDbLine
 10
-28.31359121464936
 20
-9.303038449397547
 30
0.0
 11
-28.85900597491459
 21
-8.653038449397541
 31
0.0
  0
LINE
  5
CC1
330
C81
100
AcDbEntity
  8
0
  6
ByBlock
 62
     0
100
AcDbLine
 10
-28.54832085018273
 20
-9.499999999999971
 30
0.0
 11
-29.09373561044793
 21
-8.849999999999994
 31
0.0
  0
LINE
  5
CC2
330
C81
100
AcDbEntity
  8
0
  6
ByBlock
 62
     0
100
AcDbLine
 10
-29.32296068536897
 20
-10.14999999999997
 30
0.0
 11
-28.54832085018273
 21
-9.5
 31
0.0
  0
LINE
  5
CC3
330
C81
100
AcDbEntity
  8
0
  6
ByBlock
 62
     0
100
AcDbLine
 10
-35.11694951428387
 20
-9.303038449397547
 30
0.0
 11
-35.6623642745491
 21
-8.653038449397541
 31
0.0
  0
LINE
  5
CC4
330
C81
100
AcDbEntity
  8
0
  6
ByBlock
 62
     0
100
AcDbLine
 10
-34.34230967909764
 20
-8.653038449397541
 30
0.0
 11
-35.11694951428387
 21
-9.303038449397547
 31
0.0
  0
LINE
  5
CC5
330
C81
100
AcDbEntity
  8
0
  6
ByBlock
 62
     0
100
AcDbLine
 10
-34.17703931463103
 20
-8.849999999999994
 30
0.0
 11
-34.95167914981726
 21
-9.5
 31
0.0
  0
LINE
  5
CC6
330
C81
100
AcDbEntity
  8
0
  6
ByBlock
 62
     0
100
AcDbLine
 10
-34.40626438955203
 20
-10.14999999999997
 30
0.0
 11
-34.95167914981726
 21
-9.5
 31
0.0
  0
LINE
  5
CC7
330
C81
100
AcDbEntity
  8
0
  6
ByBlock
 62
     0
100
AcDbLine
 10
-29.32296068536897
 20
-10.14999999999997
 30
0.0
 11
-34.40626438955201
 21
-10.14999999999997
 31
0.0
  0
LINE
  5
CC8
330
C81
100
AcDbEntity
  8
0
  6
ByBlock
 62
     0
100
AcDbLine
 10
-29.09373561044796
 20
-8.849999999999994
 30
0.0
 11
-34.17703931463103
 21
-8.849999999999994
 31
0.0
  0
LINE
  5
CC9
330
C81
100
AcDbEntity
  8
0
  6
ByBlock
 62
     0
100
AcDbLine
 10
-33.49486865048038
 20
-3.846961550602372
 30
0.0
 11
-34.34230967909764
 21
-8.653038449397541
 31
0.0
  0
LINE
  5
CCA
330
C81
100
AcDbEntity
  8
0
  6
ByBlock
 62
     0
100
AcDbLine
 10
-34.63779262431092
 20
-2.842403876506068
 30
0.0
 11
-35.6623642745491
 21
-8.65303844939757
 31
0.0
  0
LINE
  5
CCB
330
C81
100
AcDbEntity
  8
0
  6
ByBlock
 62
     0
100
AcDbLine
 10
-26.51437972922494
 20
-2.842403876506068
 30
0.0
 11
-27.53895137946313
 21
-8.653038449397541
 31
0.0
  0
LINE
  5
CCC
330
C81
100
AcDbEntity
  8
0
  6
ByBlock
 62
     0
100
AcDbLine
 10
-28.01156494629734
 20
-3.846961550602429
 30
0.0
 11
-28.85900597491459
 21
-8.653038449397541
 31
0.0
  0
LINE
  5
CCD
330
C81
100
AcDbEntity
  8
0
  6
ByBlock
 62
     0
100
AcDbLine
 10
-26.92755564039149
 20
-2.349999999999965
 30
0.0
 11
-26.80360286704154
 21
-2.497721162951791
 31
0.0
  0
LINE
  5
CCE
330
C81
100
AcDbEntity
  8
0
  6
ByBlock
 62
     0
100
AcDbLine
 10
-26.63833250257491
 20
-2.694682713554243
 30
0.0
 11
-28.01156494629734
 21
-3.846961550602429
 31
0.0
  0
LINE
  5
CCF
330
C81
100
AcDbEntity
  8
0
  6
ByBlock
 62
     0
100
AcDbLine
 10
-26.80360286704152
 20
-2.497721162951791
 30
0.0
 11
-28.17683531076397
 21
-3.649999999999977
 31
0.0
  0
LINE
  5
CD0
330
C81
100
AcDbEntity
  8
0
  6
ByBlock
 62
     0
100
AcDbLine
 10
-26.63833250257491
 20
-2.694682713554243
 30
0.0
 11
-26.51437972922491
 21
-2.842403876506068
 31
0.0
  0
LINE
  5
CD1
330
C81
100
AcDbEntity
  8
0
  6
ByBlock
 62
     0
100
AcDbLine
 10
-34.05096853547746
 20
-2.349999999999965
 30
0.0
 11
-34.22701576212745
 21
-2.497721162951791
 31
0.0
  0
LINE
  5
CD2
330
C81
100
AcDbEntity
  8
0
  6
ByBlock
 62
     0
100
AcDbLine
 10
-34.46174539766087
 20
-2.694682713554243
 30
0.0
 11
-34.63779262431092
 21
-2.842403876506068
 31
0.0
  0
LINE
  5
CD3
330
C81
100
AcDbEntity
  8
0
  6
ByBlock
 62
     0
100
AcDbLine
 10
-34.46174539766087
 20
-2.694682713554243
 30
0.0
 11
-33.49486865048038
 21
-3.846961550602429
 31
0.0
  0
LINE
  5
CD4
330
C81
100
AcDbEntity
  8
0
  6
ByBlock
 62
     0
100
AcDbLine
 10
-34.2270157621275
 20
-2.497721162951791
 30
0.0
 11
-33.26013901494701
 21
-3.649999999999977
 31
0.0
  0
LINE
  5
CD5
330
C81
100
AcDbEntity
  8
0
  6
ByBlock
 62
     0
100
AcDbLine
 10
-28.17683531076397
 20
-3.649999999999977
 30
0.0
 11
-33.26013901494701
 21
-3.649999999999977
 31
0.0
  0
LINE
  5
CD6
330
C81
100
AcDbEntity
  8
0
  6
ByBlock
 62
     0
100
AcDbLine
 10
-26.92755564039151
 20
-2.349999999999965
 30
0.0
 11
-34.05096853547746
 21
-2.349999999999965
 31
0.0
  0
LINE
  5
CD7
330
C81
100
AcDbEntity
  8
0
  6
ByBlock
 62
     0
100
AcDbLine
 10
-22.61694951428387
 20
-9.303038449397547
 30
0.0
 11
-23.1623642745491
 21
-8.653038449397541
 31
0.0
  0
LINE
  5
CD8
330
C81
100
AcDbEntity
  8
0
  6
ByBlock
 62
     0
100
AcDbLine
 10
-4.322960685368968
 20
-10.14999999999997
 30
0.0
 11
-9.406264389552006
 21
-10.14999999999997
 31
0.0
  0
LINE
  5
CD9
330
C81
100
AcDbEntity
  8
0
  6
ByBlock
 62
     0
100
AcDbLine
 10
-4.093735610447964
 20
-8.849999999999994
 30
0.0
 11
-9.177039314631031
 21
-8.849999999999994
 31
0.0
  0
LINE
  5
CDA
330
C81
100
AcDbEntity
  8
0
  6
ByBlock
 62
     0
100
AcDbLine
 10
-1.927555640391517
 20
-2.349999999999965
 30
0.0
 11
-9.050968535477466
 21
-2.349999999999965
 31
0.0
  0
LINE
  5
CDB
330
C81
100
AcDbEntity
  8
0
  6
ByBlock
 62
     0
100
AcDbLine
 10
-3.176835310763976
 20
-3.649999999999977
 30
0.0
 11
-8.260139014947014
 21
-3.649999999999977
 31
0.0
  0
LINE
  5
CDC
330
C81
100
AcDbEntity
  8
0
  6
ByBlock
 62
     0
100
AcDbLine
 10
-16.82296068536897
 20
-10.14999999999997
 30
0.0
 11
-21.906264389552
 21
-10.14999999999997
 31
0.0
  0
LINE
  5
CDD
330
C81
100
AcDbEntity
  8
0
  6
ByBlock
 62
     0
100
AcDbLine
 10
-16.59373561044796
 20
-8.849999999999994
 30
0.0
 11
-21.67703931463103
 21
-8.849999999999994
 31
0.0
  0
LINE
  5
CDE
330
C81
100
AcDbEntity
  8
0
  6
ByBlock
 62
     0
100
AcDbLine
 10
-14.01437972922494
 20
-2.842403876506068
 30
0.0
 11
-15.03895137946313
 21
-8.653038449397541
 31
0.0
  0
LINE
  5
CDF
330
C81
100
AcDbEntity
  8
0
  6
ByBlock
 62
     0
100
AcDbLine
 10
-15.51156494629734
 20
-3.846961550602429
 30
0.0
 11
-16.35900597491459
 21
-8.653038449397541
 31
0.0
  0
LINE
  5
CE0
330
C81
100
AcDbEntity
  8
0
  6
ByBlock
 62
     0
100
AcDbLine
 10
-20.99486865048038
 20
-3.846961550602372
 30
0.0
 11
-21.84230967909763
 21
-8.653038449397541
 31
0.0
  0
LINE
  5
CE1
330
C81
100
AcDbEntity
  8
0
  6
ByBlock
 62
     0
100
AcDbLine
 10
-8.494868650480384
 20
-3.846961550602372
 30
0.0
 11
-9.342309679097638
 21
-8.653038449397541
 31
0.0
  0
LINE
  5
CE2
330
C81
100
AcDbEntity
  8
0
  6
ByBlock
 62
     0
100
AcDbLine
 10
-9.637792624310918
 20
-2.842403876506068
 30
0.0
 11
-10.6623642745491
 21
-8.65303844939757
 31
0.0
  0
LINE
  5
CE3
330
C81
100
AcDbEntity
  8
0
  6
ByBlock
 62
     0
100
AcDbLine
 10
-9.050968535477466
 20
-2.349999999999965
 30
0.0
 11
-9.22701576212745
 21
-2.497721162951791
 31
0.0
  0
LINE
  5
CE4
330
C81
100
AcDbEntity
  8
0
  6
ByBlock
 62
     0
100
AcDbLine
 10
-9.227015762127507
 20
-2.497721162951791
 30
0.0
 11
-8.260139014947014
 21
-3.649999999999977
 31
0.0
  0
LINE
  5
CE5
330
C81
100
AcDbEntity
  8
0
  6
ByBlock
 62
     0
100
AcDbLine
 10
-9.461745397660877
 20
-2.694682713554243
 30
0.0
 11
-9.637792624310918
 21
-2.842403876506068
 31
0.0
  0
LINE
  5
CE6
330
C81
100
AcDbEntity
  8
0
  6
ByBlock
 62
     0
100
AcDbLine
 10
-9.461745397660877
 20
-2.694682713554243
 30
0.0
 11
-8.494868650480384
 21
-3.846961550602429
 31
0.0
  0
LINE
  5
CE7
330
C81
100
AcDbEntity
  8
0
  6
ByBlock
 62
     0
100
AcDbLine
 10
-14.42755564039148
 20
-2.349999999999965
 30
0.0
 11
-14.30360286704154
 21
-2.497721162951791
 31
0.0
  0
LINE
  5
CE8
330
C81
100
AcDbEntity
  8
0
  6
ByBlock
 62
     0
100
AcDbLine
 10
-14.13833250257491
 20
-2.694682713554243
 30
0.0
 11
-15.51156494629734
 21
-3.846961550602429
 31
0.0
  0
LINE
  5
CE9
330
C81
100
AcDbEntity
  8
0
  6
ByBlock
 62
     0
100
AcDbLine
 10
-14.30360286704152
 20
-2.497721162951791
 30
0.0
 11
-15.67683531076397
 21
-3.649999999999977
 31
0.0
  0
LINE
  5
CEA
330
C81
100
AcDbEntity
  8
0
  6
ByBlock
 62
     0
100
AcDbLine
 10
-14.13833250257491
 20
-2.694682713554243
 30
0.0
 11
-14.01437972922491
 21
-2.842403876506068
 31
0.0
  0
LINE
  5
CEB
330
C81
100
AcDbEntity
  8
0
  6
ByBlock
 62
     0
100
AcDbLine
 10
-15.67683531076397
 20
-3.649999999999977
 30
0.0
 11
-20.76013901494701
 21
-3.649999999999977
 31
0.0
  0
LINE
  5
CEC
330
C81
100
AcDbEntity
  8
0
  6
ByBlock
 62
     0
100
AcDbLine
 10
-14.42755564039151
 20
-2.349999999999965
 30
0.0
 11
-21.55096853547746
 21
-2.349999999999965
 31
0.0
  0
LINE
  5
CED
330
C81
100
AcDbEntity
  8
0
  6
ByBlock
 62
     0
100
AcDbLine
 10
-21.96174539766087
 20
-2.694682713554243
 30
0.0
 11
-22.13779262431092
 21
-2.842403876506068
 31
0.0
  0
LINE
  5
CEE
330
C81
100
AcDbEntity
  8
0
  6
ByBlock
 62
     0
100
AcDbLine
 10
-21.55096853547746
 20
-2.349999999999965
 30
0.0
 11
-21.72701576212745
 21
-2.497721162951791
 31
0.0
  0
LINE
  5
CEF
330
C81
100
AcDbEntity
  8
0
  6
ByBlock
 62
     0
100
AcDbLine
 10
-21.96174539766087
 20
-2.694682713554243
 30
0.0
 11
-20.99486865048038
 21
-3.846961550602429
 31
0.0
  0
LINE
  5
CF0
330
C81
100
AcDbEntity
  8
0
  6
ByBlock
 62
     0
100
AcDbLine
 10
-21.7270157621275
 20
-2.497721162951791
 30
0.0
 11
-20.76013901494701
 21
-3.649999999999977
 31
0.0
  0
LINE
  5
CF1
330
C81
100
AcDbEntity
  8
0
  6
ByBlock
 62
     0
100
AcDbLine
 10
-10.11694951428387
 20
-9.303038449397547
 30
0.0
 11
-10.6623642745491
 21
-8.653038449397541
 31
0.0
  0
LINE
  5
CF2
330
C81
100
AcDbEntity
  8
0
  6
ByBlock
 62
     0
100
AcDbLine
 10
-9.342309679097638
 20
-8.653038449397541
 30
0.0
 11
-10.11694951428387
 21
-9.303038449397547
 31
0.0
  0
LINE
  5
CF3
330
C81
100
AcDbEntity
  8
0
  6
ByBlock
 62
     0
100
AcDbLine
 10
-9.177039314631031
 20
-8.849999999999994
 30
0.0
 11
-9.951679149817266
 21
-9.5
 31
0.0
  0
LINE
  5
CF4
330
C81
100
AcDbEntity
  8
0
  6
ByBlock
 62
     0
100
AcDbLine
 10
-9.406264389552035
 20
-10.14999999999997
 30
0.0
 11
-9.951679149817266
 21
-9.5
 31
0.0
  0
LINE
  5
CF5
330
C81
100
AcDbEntity
  8
0
  6
ByBlock
 62
     0
100
AcDbLine
 10
-15.81359121464936
 20
-9.303038449397547
 30
0.0
 11
-16.35900597491459
 21
-8.653038449397541
 31
0.0
  0
LINE
  5
CF6
330
C81
100
AcDbEntity
  8
0
  6
ByBlock
 62
     0
100
AcDbLine
 10
-16.04832085018273
 20
-9.499999999999971
 30
0.0
 11
-16.59373561044793
 21
-8.849999999999994
 31
0.0
  0
LINE
  5
CF7
330
C81
100
AcDbEntity
  8
0
  6
ByBlock
 62
     0
100
AcDbLine
 10
-15.81359121464936
 20
-9.303038449397547
 30
0.0
 11
-15.03895137946313
 21
-8.653038449397541
 31
0.0
  0
LINE
  5
CF8
330
C81
100
AcDbEntity
  8
0
  6
ByBlock
 62
     0
100
AcDbLine
 10
-16.82296068536897
 20
-10.14999999999997
 30
0.0
 11
-16.04832085018273
 21
-9.5
 31
0.0
  0
LINE
  5
CF9
330
C81
100
AcDbEntity
  8
0
  6
ByBlock
 62
     0
100
AcDbLine
 10
-1.927555640391489
 20
-2.349999999999965
 30
0.0
 11
-1.803602867041547
 21
-2.497721162951791
 31
0.0
  0
LINE
  5
CFA
330
C81
100
AcDbEntity
  8
0
  6
ByBlock
 62
     0
100
AcDbLine
 10
-1.638332502574911
 20
-2.694682713554243
 30
0.0
 11
-3.01156494629734
 21
-3.846961550602429
 31
0.0
  0
LINE
  5
CFB
330
C81
100
AcDbEntity
  8
0
  6
ByBlock
 62
     0
100
AcDbLine
 10
-1.803602867041519
 20
-2.497721162951791
 30
0.0
 11
-3.176835310763976
 21
-3.649999999999977
 31
0.0
  0
LINE
  5
CFC
330
C81
100
AcDbEntity
  8
0
  6
ByBlock
 62
     0
100
AcDbLine
 10
-1.638332502574911
 20
-2.694682713554243
 30
0.0
 11
-1.514379729224913
 21
-2.842403876506068
 31
0.0
  0
LINE
  5
CFD
330
C81
100
AcDbEntity
  8
0
  6
ByBlock
 62
     0
100
AcDbLine
 10
-3.313591214649363
 20
-9.303038449397547
 30
0.0
 11
-3.859005974914595
 21
-8.653038449397541
 31
0.0
  0
LINE
  5
CFE
330
C81
100
AcDbEntity
  8
0
  6
ByBlock
 62
     0
100
AcDbLine
 10
-3.548320850182733
 20
-9.499999999999971
 30
0.0
 11
-4.093735610447936
 21
-8.849999999999994
 31
0.0
  0
LINE
  5
CFF
330
C81
100
AcDbEntity
  8
0
  6
ByBlock
 62
     0
100
AcDbLine
 10
-3.313591214649363
 20
-9.303038449397547
 30
0.0
 11
-2.538951379463128
 21
-8.653038449397541
 31
0.0
  0
LINE
  5
D00
330
C81
100
AcDbEntity
  8
0
  6
ByBlock
 62
     0
100
AcDbLine
 10
-4.322960685368968
 20
-10.14999999999997
 30
0.0
 11
-3.548320850182733
 21
-9.5
 31
0.0
  0
LINE
  5
D01
330
C81
100
AcDbEntity
  8
0
  6
ByBlock
 62
     0
100
AcDbLine
 10
-1.514379729224941
 20
-2.842403876506068
 30
0.0
 11
-2.538951379463128
 21
-8.653038449397541
 31
0.0
  0
LINE
  5
D02
330
C81
100
AcDbEntity
  8
0
  6
ByBlock
 62
     0
100
AcDbLine
 10
-3.01156494629734
 20
-3.846961550602429
 30
0.0
 11
-3.859005974914595
 21
-8.653038449397541
 31
0.0
  0
ENDBLK
  5
D04
330
C81
100
AcDbEntity
  8
0
100
AcDbBlockEnd
  0
BLOCK
  5
D0A
330
D05
100
AcDbEntity
  8
0
100
AcDbBlockBegin
  2
A$C0EE84D96
 70
     0
 10
0.0
 20
0.0
 30
0.0
  3
A$C0EE84D96
  1

  0
LINE
  5
D06
330
D05
100
AcDbEntity
  8
0
  6
ByBlock
 62
     0
370
    -2
100
AcDbLine
 10
-1.0
 20
-1.0
 30
0.0
 11
1.0
 21
-1.0
 31
0.0
  0
LINE
  5
D07
330
D05
100
AcDbEntity
  8
0
  6
ByBlock
 62
     0
370
    -2
100
AcDbLine
 10
-2.0
 20
0.0
 30
0.0
 11
2.0
 21
0.0
 31
0.0
  0
LINE
  5
D08
330
D05
100
AcDbEntity
  8
0
  6
ByBlock
 62
     0
370
    -2
100
AcDbLine
 10
-0.5
 20
-2.0
 30
0.0
 11
0.5
 21
-2.0
 31
0.0
  0
LINE
  5
D09
330
D05
100
AcDbEntity
  8
0
  6
ByBlock
 62
     0
370
    -2
100
AcDbLine
 10
0.0
 20
0.0
 30
0.0
 11
0.0
 21
2.0
 31
0.0
  0
ENDBLK
  5
D0B
330
D05
100
AcDbEntity
  8
0
100
AcDbBlockEnd
  0
BLOCK
  5
D33
330
D0C
100
AcDbEntity
  8
0
100
AcDbBlockBegin
  2
NIPPO-1
 70
     0
 10
0.0
 20
0.0
 30
0.0
  3
NIPPO-1
  1

  4
ＮＩＰＰＯロゴ－１
  0
HATCH
  5
D0D
330
D0C
100
AcDbEntity
  8
0
  6
ByBlock
 62
     0
370
    -2
100
AcDbHatch
 10
0.0
 20
0.0
 30
0.0
210
0.0
220
0.0
230
1.0
  2
SOLID
 70
     1
 71
     1
 91
        9
 92
        7
 72
     1
 73
     1
 93
       10
 10
3.100000000000001
 20
5.400000000000005
 42
-0.4142135623730945
 10
4.399999999999998
 20
4.100000000000005
 42
0.0
 10
4.399999999999998
 20
0.0
 42
0.0
 10
6.0
 20
0.0
 42
0.0
 10
6.0
 20
4.5
 42
0.4142135623730951
 10
3.5
 20
7.0
 42
0.0
 10
0.0
 20
7.0
 42
0.0
 10
0.0
 20
0.0
 42
0.0
 10
1.600000000000001
 20
0.0000000000000284
 42
0.0
 10
1.600000000000001
 20
5.400000000000005
 42
0.0
 97
       10
330
D12
330
D14
330
D13
330
D11
330
D10
330
D0E
330
D25
330
D24
330
D26
330
D0F
 92
        7
 72
     0
 73
     1
 93
        4
 10
7.799999999999998
 20
11.0
 10
6.499999999999985
 20
9.699999999999986
 10
7.799999999999998
 20
8.399999999999977
 10
9.10000000000001
 20
9.699999999999988
 97
        1
330
D32
 92
        7
 72
     0
 73
     1
 93
        4
 10
8.599999999999994
 20
7.0
 10
7.0
 20
7.0
 10
7.0
 20
0.0
 10
8.599999999999994
 20
0.0
 97
        4
330
D1C
330
D23
330
D20
330
D21
 92
        7
 72
     1
 73
     1
 93
        6
 10
9.599999999999994
 20
-4.0
 42
0.0
 10
11.19999999999997
 20
-3.0
 42
0.0
 10
11.19999999999997
 20
0.0
 42
0.0
 10
12.09999999999999
 20
0.0
 42
1.0
 10
12.09999999999991
 20
7.000000000000056
 42
0.0
 10
9.599999999999996
 20
6.999999999999999
 42
0.0
 97
        6
330
D22
330
D1F
330
D18
330
D19
330
D1D
330
D16
 92
       22
 72
     1
 73
     1
 93
        4
 10
11.19999999999997
 20
5.400000000000005
 42
0.0
 10
12.09999999999993
 20
5.400000000000034
 42
-1.0
 10
12.09999999999996
 20
1.599999999999994
 42
0.0
 10
11.19999999999997
 20
1.599999999999994
 42
0.0
 97
        4
330
D1B
330
D17
330
D1A
330
D1E
 92
        7
 72
     1
 73
     1
 93
        6
 10
16.09999999999999
 20
7.0
 42
0.0
 10
16.09999999999999
 20
-4.0
 42
0.0
 10
17.69999999999997
 20
-3.0
 42
0.0
 10
17.69999999999997
 20
0.0
 42
0.0
 10
18.59999999999999
 20
0.0
 42
1.0
 10
18.59999999999991
 20
7.000000000000056
 42
0.0
 97
        6
330
D27
330
D2D
330
D2B
330
D2C
330
D2A
330
D15
 92
       22
 72
     1
 73
     1
 93
        4
 10
18.59999999999993
 20
5.400000000000034
 42
-1.0
 10
18.59999999999996
 20
1.599999999999994
 42
0.0
 10
17.69999999999997
 20
1.599999999999994
 42
0.0
 10
17.69999999999997
 20
5.400000000000005
 42
0.0
 97
        4
330
D2E
330
D29
330
D2F
330
D28
 92
        7
 72
     1
 73
     1
 93
        2
 10
23.0
 20
3.5
 42
1.0
 10
30.0
 20
3.5
 42
1.0
 97
        1
330
D30
 92
       22
 72
     1
 73
     1
 93
        2
 10
28.39999999999999
 20
3.5
 42
-1.0
 10
24.6
 20
3.5
 42
-1.0
 97
        1
330
D31
 75
     0
 76
     1
 47
0.0872047857515921
 98
        9
 10
1.805424313557864
 20
5.816636866957651
 10
7.913915580367529
 20
9.740852427129652
 10
8.001179848645733
 20
4.77017966208939
 10
10.44457560410342
 20
5.903841683645055
 10
10.44457560410342
 20
5.903841683645055
 10
17.86202901692013
 20
6.25266095039467
 10
17.86202901692013
 20
6.25266095039467
 10
23.88325507636886
 20
4.421360395339775
 10
23.88325507636886
 20
4.421360395339775
  0
ARC
  5
D0E
102
{ACAD_REACTORS
330
D0D
102
}
330
D0C
100
AcDbEntity
  8
0
  6
ByBlock
 62
     0
370
    -2
100
AcDbCircle
 10
3.100000000000001
 20
4.099999999999994
 30
0.0
 40
1.3
100
AcDbArc
 50
0.0
 51
90.0
  0
ARC
  5
D0F
102
{ACAD_REACTORS
330
D0D
102
}
330
D0C
100
AcDbEntity
  8
0
  6
ByBlock
 62
     0
370
    -2
100
AcDbCircle
 10
3.5
 20
4.5
 30
0.0
 40
2.5
100
AcDbArc
 50
0.0
 51
90.0
  0
LINE
  5
D10
102
{ACAD_REACTORS
330
D0D
102
}
330
D0C
100
AcDbEntity
  8
0
  6
ByBlock
 62
     0
370
    -2
100
AcDbLine
 10
3.100000000000001
 20
5.400000000000005
 30
0.0
 11
1.600000000000001
 21
5.400000000000005
 31
0.0
  0
LINE
  5
D11
102
{ACAD_REACTORS
330
D0D
102
}
330
D0C
100
AcDbEntity
  8
0
  6
ByBlock
 62
     0
370
    -2
100
AcDbLine
 10
1.600000000000001
 20
5.400000000000005
 30
0.0
 11
1.600000000000001
 21
0.0
 31
0.0
  0
LINE
  5
D12
102
{ACAD_REACTORS
330
D0D
102
}
330
D0C
100
AcDbEntity
  8
0
  6
ByBlock
 62
     0
370
    -2
100
AcDbLine
 10
3.5
 20
7.0
 30
0.0
 11
0.0
 21
7.0
 31
0.0
  0
LINE
  5
D13
102
{ACAD_REACTORS
330
D0D
102
}
330
D0C
100
AcDbEntity
  8
0
  6
ByBlock
 62
     0
370
    -2
100
AcDbLine
 10
0.0
 20
0.0
 30
0.0
 11
1.600000000000008
 21
0.0000000000000284
 31
0.0
  0
LINE
  5
D14
102
{ACAD_REACTORS
330
D0D
102
}
330
D0C
100
AcDbEntity
  8
0
  6
ByBlock
 62
     0
370
    -2
100
AcDbLine
 10
0.0
 20
7.0
 30
0.0
 11
0.0
 21
0.0
 31
0.0
  0
ARC
  5
D15
102
{ACAD_REACTORS
330
D0D
102
}
330
D0C
100
AcDbEntity
  8
0
  6
ByBlock
 62
     0
370
    -2
100
AcDbCircle
 10
18.59999999999999
 20
3.5
 30
0.0
 40
3.5
100
AcDbArc
 50
270.0
 51
90.0
  0
ARC
  5
D16
102
{ACAD_REACTORS
330
D0D
102
}
330
D0C
100
AcDbEntity
  8
0
  6
ByBlock
 62
     0
370
    -2
100
AcDbCircle
 10
12.09999999999999
 20
3.5
 30
0.0
 40
3.5
100
AcDbArc
 50
270.0
 51
90.0
  0
ARC
  5
D17
102
{ACAD_REACTORS
330
D0D
102
}
330
D0C
100
AcDbEntity
  8
0
  6
ByBlock
 62
     0
370
    -2
100
AcDbCircle
 10
12.09999999999999
 20
3.5
 30
0.0
 40
1.900000000000005
100
AcDbArc
 50
270.0
 51
90.0
  0
LINE
  5
D18
102
{ACAD_REACTORS
330
D0D
102
}
330
D0C
100
AcDbEntity
  8
0
  6
ByBlock
 62
     0
370
    -2
100
AcDbLine
 10
9.599999999999994
 20
-4.0
 30
0.0
 11
11.19999999999997
 21
-3.0
 31
0.0
  0
LINE
  5
D19
102
{ACAD_REACTORS
330
D0D
102
}
330
D0C
100
AcDbEntity
  8
0
  6
ByBlock
 62
     0
370
    -2
100
AcDbLine
 10
11.19999999999997
 20
-0.0000000000000284
 30
0.0
 11
11.19999999999997
 21
-3.0
 31
0.0
  0
LINE
  5
D1A
102
{ACAD_REACTORS
330
D0D
102
}
330
D0C
100
AcDbEntity
  8
0
  6
ByBlock
 62
     0
370
    -2
100
AcDbLine
 10
11.19999999999997
 20
1.599999999999994
 30
0.0
 11
12.09999999999999
 21
1.599999999999994
 31
0.0
  0
LINE
  5
D1B
102
{ACAD_REACTORS
330
D0D
102
}
330
D0C
100
AcDbEntity
  8
0
  6
ByBlock
 62
     0
370
    -2
100
AcDbLine
 10
12.09999999999999
 20
5.400000000000034
 30
0.0
 11
11.19999999999997
 21
5.400000000000005
 31
0.0
  0
LINE
  5
D1C
102
{ACAD_REACTORS
330
D0D
102
}
330
D0C
100
AcDbEntity
  8
0
  6
ByBlock
 62
     0
370
    -2
100
AcDbLine
 10
8.599999999999994
 20
7.0
 30
0.0
 11
7.0
 21
7.0
 31
0.0
  0
LINE
  5
D1D
102
{ACAD_REACTORS
330
D0D
102
}
330
D0C
100
AcDbEntity
  8
0
  6
ByBlock
 62
     0
370
    -2
100
AcDbLine
 10
11.19999999999997
 20
0.0
 30
0.0
 11
12.09999999999999
 21
0.0
 31
0.0
  0
LINE
  5
D1E
102
{ACAD_REACTORS
330
D0D
102
}
330
D0C
100
AcDbEntity
  8
0
  6
ByBlock
 62
     0
370
    -2
100
AcDbLine
 10
11.19999999999997
 20
5.399999999999977
 30
0.0
 11
11.19999999999997
 21
1.599999999999994
 31
0.0
  0
LINE
  5
D1F
102
{ACAD_REACTORS
330
D0D
102
}
330
D0C
100
AcDbEntity
  8
0
  6
ByBlock
 62
     0
370
    -2
100
AcDbLine
 10
9.599999999999994
 20
7.0
 30
0.0
 11
9.599999999999994
 21
-4.0
 31
0.0
  0
LINE
  5
D20
102
{ACAD_REACTORS
330
D0D
102
}
330
D0C
100
AcDbEntity
  8
0
  6
ByBlock
 62
     0
370
    -2
100
AcDbLine
 10
7.0
 20
0.0
 30
0.0
 11
8.599999999999994
 21
0.0
 31
0.0
  0
LINE
  5
D21
102
{ACAD_REACTORS
330
D0D
102
}
330
D0C
100
AcDbEntity
  8
0
  6
ByBlock
 62
     0
370
    -2
100
AcDbLine
 10
8.599999999999994
 20
7.0
 30
0.0
 11
8.599999999999994
 21
0.0
 31
0.0
  0
LINE
  5
D22
102
{ACAD_REACTORS
330
D0D
102
}
330
D0C
100
AcDbEntity
  8
0
  6
ByBlock
 62
     0
370
    -2
100
AcDbLine
 10
12.09999999999999
 20
7.000000000000056
 30
0.0
 11
9.599999999999994
 21
7.0
 31
0.0
  0
LINE
  5
D23
102
{ACAD_REACTORS
330
D0D
102
}
330
D0C
100
AcDbEntity
  8
0
  6
ByBlock
 62
     0
370
    -2
100
AcDbLine
 10
7.0
 20
7.0
 30
0.0
 11
7.0
 21
0.0
 31
0.0
  0
LINE
  5
D24
102
{ACAD_REACTORS
330
D0D
102
}
330
D0C
100
AcDbEntity
  8
0
  6
ByBlock
 62
     0
370
    -2
100
AcDbLine
 10
4.399999999999998
 20
0.0
 30
0.0
 11
6.0
 21
0.0
 31
0.0
  0
LINE
  5
D25
102
{ACAD_REACTORS
330
D0D
102
}
330
D0C
100
AcDbEntity
  8
0
  6
ByBlock
 62
     0
370
    -2
100
AcDbLine
 10
4.399999999999998
 20
4.099999999999994
 30
0.0
 11
4.399999999999998
 21
0.0
 31
0.0
  0
LINE
  5
D26
102
{ACAD_REACTORS
330
D0D
102
}
330
D0C
100
AcDbEntity
  8
0
  6
ByBlock
 62
     0
370
    -2
100
AcDbLine
 10
6.0
 20
4.5
 30
0.0
 11
6.0
 21
0.0
 31
0.0
  0
LINE
  5
D27
102
{ACAD_REACTORS
330
D0D
102
}
330
D0C
100
AcDbEntity
  8
0
  6
ByBlock
 62
     0
370
    -2
100
AcDbLine
 10
18.59999999999999
 20
7.000000000000056
 30
0.0
 11
16.09999999999999
 21
7.0
 31
0.0
  0
LINE
  5
D28
102
{ACAD_REACTORS
330
D0D
102
}
330
D0C
100
AcDbEntity
  8
0
  6
ByBlock
 62
     0
370
    -2
100
AcDbLine
 10
18.59999999999999
 20
5.400000000000034
 30
0.0
 11
17.69999999999997
 21
5.400000000000005
 31
0.0
  0
LINE
  5
D29
102
{ACAD_REACTORS
330
D0D
102
}
330
D0C
100
AcDbEntity
  8
0
  6
ByBlock
 62
     0
370
    -2
100
AcDbLine
 10
17.69999999999997
 20
1.599999999999994
 30
0.0
 11
18.59999999999999
 21
1.599999999999994
 31
0.0
  0
LINE
  5
D2A
102
{ACAD_REACTORS
330
D0D
102
}
330
D0C
100
AcDbEntity
  8
0
  6
ByBlock
 62
     0
370
    -2
100
AcDbLine
 10
17.69999999999997
 20
0.0
 30
0.0
 11
18.59999999999999
 21
0.0
 31
0.0
  0
LINE
  5
D2B
102
{ACAD_REACTORS
330
D0D
102
}
330
D0C
100
AcDbEntity
  8
0
  6
ByBlock
 62
     0
370
    -2
100
AcDbLine
 10
16.09999999999999
 20
-4.0
 30
0.0
 11
17.69999999999997
 21
-3.0
 31
0.0
  0
LINE
  5
D2C
102
{ACAD_REACTORS
330
D0D
102
}
330
D0C
100
AcDbEntity
  8
0
  6
ByBlock
 62
     0
370
    -2
100
AcDbLine
 10
17.69999999999997
 20
-0.0000000000000284
 30
0.0
 11
17.69999999999997
 21
-3.0
 31
0.0
  0
LINE
  5
D2D
102
{ACAD_REACTORS
330
D0D
102
}
330
D0C
100
AcDbEntity
  8
0
  6
ByBlock
 62
     0
370
    -2
100
AcDbLine
 10
16.09999999999999
 20
7.0
 30
0.0
 11
16.09999999999999
 21
-4.0
 31
0.0
  0
ARC
  5
D2E
102
{ACAD_REACTORS
330
D0D
102
}
330
D0C
100
AcDbEntity
  8
0
  6
ByBlock
 62
     0
370
    -2
100
AcDbCircle
 10
18.59999999999999
 20
3.5
 30
0.0
 40
1.900000000000005
100
AcDbArc
 50
270.0
 51
90.0
  0
LINE
  5
D2F
102
{ACAD_REACTORS
330
D0D
102
}
330
D0C
100
AcDbEntity
  8
0
  6
ByBlock
 62
     0
370
    -2
100
AcDbLine
 10
17.69999999999997
 20
5.399999999999977
 30
0.0
 11
17.69999999999997
 21
1.599999999999994
 31
0.0
  0
CIRCLE
  5
D30
102
{ACAD_REACTORS
330
D0D
102
}
330
D0C
100
AcDbEntity
  8
0
  6
ByBlock
 62
     0
370
    -2
100
AcDbCircle
 10
26.5
 20
3.5
 30
0.0
 40
3.5
  0
CIRCLE
  5
D31
102
{ACAD_REACTORS
330
D0D
102
}
330
D0C
100
AcDbEntity
  8
0
  6
ByBlock
 62
     0
370
    -2
100
AcDbCircle
 10
26.5
 20
3.5
 30
0.0
 40
1.9
  0
LWPOLYLINE
  5
D32
102
{ACAD_REACTORS
330
D0D
102
}
330
D0C
100
AcDbEntity
  8
0
  6
ByBlock
 62
     0
370
    -2
100
AcDbPolyline
 90
        4
 70
     1
 43
0.0
 10
7.799999999999997
 20
8.399999999999977
 10
9.100000000000008
 20
9.699999999999988
 10
7.799999999999997
 20
11.0
 10
6.499999999999985
 20
9.699999999999988
  0
ENDBLK
  5
D34
330
D0C
100
AcDbEntity
  8
0
100
AcDbBlockEnd
  0
BLOCK
  5
1734
330
172A
100
AcDbEntity
  8
0
100
AcDbBlockBegin
  2
*D4
 70
     1
 10
0.0
 20
0.0
 30
0.0
  3
*D4
  1

  0
LINE
  5
178C
330
172A
100
AcDbEntity
  8
2
 62
     0
370
    -2
100
AcDbLine
 10
424.2812676648417
 20
220.7190091957526
 30
0.0
 11
424.2812676648417
 21
231.1612945665241
 31
0.0
  0
LINE
  5
178D
330
172A
100
AcDbEntity
  8
2
 62
     0
370
    -2
100
AcDbLine
 10
438.2812673956598
 20
175.0190091957526
 30
0.0
 11
438.2812673956598
 21
231.1612945665241
 31
0.0
  0
LINE
  5
178E
330
172A
100
AcDbEntity
  8
2
 62
     0
370
    -2
100
AcDbLine
 10
426.7812676648418
 20
229.9112945665241
 30
0.0
 11
435.7812673956598
 21
229.9112945665241
 31
0.0
  0
SOLID
  5
178F
330
172A
100
AcDbEntity
  8
2
 62
     0
100
AcDbTrace
 10
426.7812676648418
 20
230.3279612331908
 30
0.0
 11
426.7812676648418
 21
229.4946278998574
 31
0.0
 12
424.2812676648417
 22
229.9112945665241
 32
0.0
 13
424.2812676648417
 23
229.9112945665241
 33
0.0
  0
SOLID
  5
1790
330
172A
100
AcDbEntity
  8
2
 62
     0
100
AcDbTrace
 10
435.7812673956598
 20
230.3279612331908
 30
0.0
 11
435.7812673956598
 21
229.4946278998574
 31
0.0
 12
438.2812673956598
 22
229.9112945665241
 32
0.0
 13
438.2812673956598
 23
229.9112945665241
 33
0.0
  0
MTEXT
  5
1791
330
172A
100
AcDbEntity
  8
2
 62
     0
100
AcDbMText
 10
431.2812675302508
 20
232.0398659950955
 30
0.0
 40
2.5
 41
0.0
 71
     5
 72
     1
  1
\A1;(14)
  7
ＭＳ明朝
 73
     1
 44
1.0
  0
POINT
  5
1792
330
172A
100
AcDbEntity
  8
DEFPOINTS
 62
     0
100
AcDbPoint
 10
424.2812676648417
 20
219.2190091957526
 30
0.0
  0
POINT
  5
1793
330
172A
100
AcDbEntity
  8
DEFPOINTS
 62
     0
100
AcDbPoint
 10
438.2812673956598
 20
173.5190091957526
 30
0.0
  0
POINT
  5
1794
330
172A
100
AcDbEntity
  8
DEFPOINTS
 62
     0
100
AcDbPoint
 10
438.2812673956598
 20
229.9112945665241
 30
0.0
  0
ENDBLK
  5
1735
330
172A
100
AcDbEntity
  8
0
100
AcDbBlockEnd
  0
BLOCK
  5
1742
330
1736
100
AcDbEntity
  8
0
100
AcDbBlockBegin
  2
*D5
 70
     1
 10
0.0
 20
0.0
 30
0.0
  3
*D5
  1

  0
LINE
  5
1795
330
1736
100
AcDbEntity
  8
2
 62
     0
370
    -2
100
AcDbLine
 10
359.2812676648418
 20
221.7190091957526
 30
0.0
 11
359.2812676648418
 21
231.1612945665241
 31
0.0
  0
LINE
  5
1796
330
1736
100
AcDbEntity
  8
2
 62
     0
370
    -2
100
AcDbLine
 10
363.2812676648418
 20
224.7190091957526
 30
0.0
 11
363.2812676648418
 21
231.1612945665241
 31
0.0
  0
LINE
  5
1797
330
1736
100
AcDbEntity
  8
2
 62
     0
370
    -2
100
AcDbLine
 10
356.7812676648418
 20
229.9112945665241
 30
0.0
 11
354.2812676648418
 21
229.9112945665241
 31
0.0
  0
LINE
  5
1798
330
1736
100
AcDbEntity
  8
2
 62
     0
370
    -2
100
AcDbLine
 10
365.7812676648418
 20
229.9112945665241
 30
0.0
 11
368.2812676648418
 21
229.9112945665241
 31
0.0
  0
LINE
  5
1799
330
1736
100
AcDbEntity
  8
2
 62
     0
370
    -2
100
AcDbLine
 10
359.2812676648418
 20
229.9112945665241
 30
0.0
 11
363.2812676648418
 21
229.9112945665241
 31
0.0
  0
SOLID
  5
179A
330
1736
100
AcDbEntity
  8
2
 62
     0
100
AcDbTrace
 10
356.7812676648418
 20
230.3279612331908
 30
0.0
 11
356.7812676648418
 21
229.4946278998574
 31
0.0
 12
359.2812676648418
 22
229.9112945665241
 32
0.0
 13
359.2812676648418
 23
229.9112945665241
 33
0.0
  0
SOLID
  5
179B
330
1736
100
AcDbEntity
  8
2
 62
     0
100
AcDbTrace
 10
365.7812676648418
 20
230.3279612331908
 30
0.0
 11
365.7812676648418
 21
229.4946278998574
 31
0.0
 12
363.2812676648418
 22
229.9112945665241
 32
0.0
 13
363.2812676648418
 23
229.9112945665241
 33
0.0
  0
MTEXT
  5
179C
330
1736
100
AcDbEntity
  8
2
 62
     0
100
AcDbMText
 10
361.2812676648418
 20
231.6612945665241
 30
0.0
 40
2.5
 41
0.0
 71
     5
 72
     1
  1
\A1;4
  7
ＭＳ明朝
 73
     1
 44
1.0
  0
POINT
  5
179D
330
1736
100
AcDbEntity
  8
DEFPOINTS
 62
     0
100
AcDbPoint
 10
359.2812676648418
 20
220.2190091957526
 30
0.0
  0
POINT
  5
179E
330
1736
100
AcDbEntity
  8
DEFPOINTS
 62
     0
100
AcDbPoint
 10
363.2812676648418
 20
223.2190091957526
 30
0.0
  0
POINT
  5
179F
330
1736
100
AcDbEntity
  8
DEFPOINTS
 62
     0
100
AcDbPoint
 10
363.2812676648418
 20
229.9112945665241
 30
0.0
  0
ENDBLK
  5
1743
330
1736
100
AcDbEntity
  8
0
100
AcDbBlockEnd
  0
BLOCK
  5
174E
330
1744
100
AcDbEntity
  8
0
100
AcDbBlockBegin
  2
*D6
 70
     1
 10
0.0
 20
0.0
 30
0.0
  3
*D6
  1

  0
LINE
  5
17A0
330
1744
100
AcDbEntity
  8
2
 62
     0
370
    -2
100
AcDbLine
 10
363.2812676648418
 20
224.7190091957526
 30
0.0
 11
363.2812676648418
 21
231.1612945665241
 31
0.0
  0
LINE
  5
17A1
330
1744
100
AcDbEntity
  8
2
 62
     0
370
    -2
100
AcDbLine
 10
424.2812676648417
 20
220.7190091957526
 30
0.0
 11
424.2812676648417
 21
231.1612945665241
 31
0.0
  0
LINE
  5
17A2
330
1744
100
AcDbEntity
  8
2
 62
     0
370
    -2
100
AcDbLine
 10
365.7812676648418
 20
229.9112945665241
 30
0.0
 11
421.7812676648418
 21
229.9112945665241
 31
0.0
  0
SOLID
  5
17A3
330
1744
100
AcDbEntity
  8
2
 62
     0
100
AcDbTrace
 10
365.7812676648418
 20
230.3279612331908
 30
0.0
 11
365.7812676648418
 21
229.4946278998574
 31
0.0
 12
363.2812676648418
 22
229.9112945665241
 32
0.0
 13
363.2812676648418
 23
229.9112945665241
 33
0.0
  0
SOLID
  5
17A4
330
1744
100
AcDbEntity
  8
2
 62
     0
100
AcDbTrace
 10
421.7812676648418
 20
230.3279612331908
 30
0.0
 11
421.7812676648418
 21
229.4946278998574
 31
0.0
 12
424.2812676648417
 22
229.9112945665241
 32
0.0
 13
424.2812676648417
 23
229.9112945665241
 33
0.0
  0
MTEXT
  5
17A5
330
1744
100
AcDbEntity
  8
2
 62
     0
100
AcDbMText
 10
393.7812676648418
 20
231.6612945665241
 30
0.0
 40
2.5
 41
0.0
 71
     5
 72
     1
  1
\A1;61
  7
ＭＳ明朝
 73
     1
 44
1.0
  0
POINT
  5
17A6
330
1744
100
AcDbEntity
  8
DEFPOINTS
 62
     0
100
AcDbPoint
 10
363.2812676648418
 20
223.2190091957526
 30
0.0
  0
POINT
  5
17A7
330
1744
100
AcDbEntity
  8
DEFPOINTS
 62
     0
100
AcDbPoint
 10
424.2812676648417
 20
219.2190091957526
 30
0.0
  0
POINT
  5
17A8
330
1744
100
AcDbEntity
  8
DEFPOINTS
 62
     0
100
AcDbPoint
 10
424.2812676648417
 20
229.9112945665241
 30
0.0
  0
ENDBLK
  5
174F
330
1744
100
AcDbEntity
  8
0
100
AcDbBlockEnd
  0
BLOCK
  5
175A
330
1750
100
AcDbEntity
  8
0
100
AcDbBlockBegin
  2
*D7
 70
     1
 10
0.0
 20
0.0
 30
0.0
  3
*D7
  1

  0
LINE
  5
17A9
330
1750
100
AcDbEntity
  8
2
 62
     0
370
    -2
100
AcDbLine
 10
158.0949875068254
 20
149.7190091957526
 30
0.0
 11
158.0949875068254
 21
139.6612945665241
 31
0.0
  0
LINE
  5
17AA
330
1750
100
AcDbEntity
  8
2
 62
     0
370
    -2
100
AcDbLine
 10
302.0949875068254
 20
149.7190091957526
 30
0.0
 11
302.0949875068254
 21
139.6612945665241
 31
0.0
  0
LINE
  5
17AB
330
1750
100
AcDbEntity
  8
2
 62
     0
370
    -2
100
AcDbLine
 10
160.5949875068254
 20
140.9112945665241
 30
0.0
 11
299.5949875068254
 21
140.9112945665241
 31
0.0
  0
SOLID
  5
17AC
330
1750
100
AcDbEntity
  8
2
 62
     0
100
AcDbTrace
 10
160.5949875068254
 20
141.3279612331908
 30
0.0
 11
160.5949875068254
 21
140.4946278998574
 31
0.0
 12
158.0949875068254
 22
140.9112945665241
 32
0.0
 13
158.0949875068254
 23
140.9112945665241
 33
0.0
  0
SOLID
  5
17AD
330
1750
100
AcDbEntity
  8
2
 62
     0
100
AcDbTrace
 10
299.5949875068254
 20
141.3279612331908
 30
0.0
 11
299.5949875068254
 21
140.4946278998574
 31
0.0
 12
302.0949875068254
 22
140.9112945665241
 32
0.0
 13
302.0949875068254
 23
140.9112945665241
 33
0.0
  0
MTEXT
  5
17AE
330
1750
100
AcDbEntity
  8
2
 62
     0
100
AcDbMText
 10
230.0949875068254
 20
142.6612945665241
 30
0.0
 40
2.5
 41
0.0
 71
     5
 72
     1
  1
\A1;144
  7
ＭＳ明朝
 73
     1
 44
1.0
  0
POINT
  5
17AF
330
1750
100
AcDbEntity
  8
DEFPOINTS
 62
     0
100
AcDbPoint
 10
158.0949875068254
 20
151.2190091957526
 30
0.0
  0
POINT
  5
17B0
330
1750
100
AcDbEntity
  8
DEFPOINTS
 62
     0
100
AcDbPoint
 10
302.0949875068254
 20
151.2190091957526
 30
0.0
  0
POINT
  5
17B1
330
1750
100
AcDbEntity
  8
DEFPOINTS
 62
     0
100
AcDbPoint
 10
302.0949875068254
 20
140.9112945665241
 30
0.0
  0
ENDBLK
  5
175B
330
1750
100
AcDbEntity
  8
0
100
AcDbBlockEnd
  0
BLOCK
  5
1766
330
175C
100
AcDbEntity
  8
0
100
AcDbBlockBegin
  2
*D8
 70
     1
 10
0.0
 20
0.0
 30
0.0
  3
*D8
  1

  0
LINE
  5
17B2
330
175C
100
AcDbEntity
  8
2
 62
     0
370
    -2
100
AcDbLine
 10
156.5949875068254
 20
151.2190091957526
 30
0.0
 11
147.8449871548122
 21
151.2190091957526
 31
0.0
  0
LINE
  5
17B3
330
175C
100
AcDbEntity
  8
2
 62
     0
370
    -2
100
AcDbLine
 10
156.5949875068254
 20
223.2190091957526
 30
0.0
 11
147.8449871548123
 21
223.2190091957526
 31
0.0
  0
LINE
  5
17B4
330
175C
100
AcDbEntity
  8
2
 62
     0
370
    -2
100
AcDbLine
 10
149.0949871548122
 20
153.7190091957526
 30
0.0
 11
149.0949871548123
 21
220.7190091957526
 31
0.0
  0
SOLID
  5
17B5
330
175C
100
AcDbEntity
  8
2
 62
     0
100
AcDbTrace
 10
148.6783204881456
 20
153.7190091957526
 30
0.0
 11
149.5116538214789
 21
153.7190091957526
 31
0.0
 12
149.0949871548122
 22
151.2190091957526
 32
0.0
 13
149.0949871548122
 23
151.2190091957526
 33
0.0
  0
SOLID
  5
17B6
330
175C
100
AcDbEntity
  8
2
 62
     0
100
AcDbTrace
 10
148.6783204881456
 20
220.7190091957526
 30
0.0
 11
149.5116538214789
 21
220.7190091957526
 31
0.0
 12
149.0949871548123
 22
223.2190091957526
 32
0.0
 13
149.0949871548123
 23
223.2190091957526
 33
0.0
  0
MTEXT
  5
17B7
330
175C
100
AcDbEntity
  8
2
 62
     0
100
AcDbMText
 10
147.3449871548122
 20
187.2190091957526
 30
0.0
 40
2.5
 41
0.0
 71
     5
 72
     1
  1
\A1;72
  7
ＭＳ明朝
 11
0.0000000000000001
 21
1.0
 31
0.0
 73
     1
 44
1.0
  0
POINT
  5
17B8
330
175C
100
AcDbEntity
  8
DEFPOINTS
 62
     0
100
AcDbPoint
 10
158.0949875068254
 20
151.2190091957526
 30
0.0
  0
POINT
  5
17B9
330
175C
100
AcDbEntity
  8
DEFPOINTS
 62
     0
100
AcDbPoint
 10
158.0949875068254
 20
223.2190091957526
 30
0.0
  0
POINT
  5
17BA
330
175C
100
AcDbEntity
  8
DEFPOINTS
 62
     0
100
AcDbPoint
 10
149.0949871548123
 20
223.2190091957526
 30
0.0
  0
ENDBLK
  5
1767
330
175C
100
AcDbEntity
  8
0
100
AcDbBlockEnd
  0
BLOCK
  5
1772
330
1768
100
AcDbEntity
  8
0
100
AcDbBlockBegin
  2
*D9
 70
     1
 10
0.0
 20
0.0
 30
0.0
  3
*D9
  1

  0
LINE
  5
17BB
330
1768
100
AcDbEntity
  8
2
 62
     0
370
    -2
100
AcDbLine
 10
363.2812676648418
 20
341.3267241387026
 30
0.0
 11
363.2812676648418
 21
358.1612945665241
 31
0.0
  0
LINE
  5
17BC
330
1768
100
AcDbEntity
  8
2
 62
     0
370
    -2
100
AcDbLine
 10
499.2812676648418
 20
341.3267241387026
 30
0.0
 11
499.2812676648418
 21
358.1612945665241
 31
0.0
  0
LINE
  5
17BD
330
1768
100
AcDbEntity
  8
2
 62
     0
370
    -2
100
AcDbLine
 10
365.7812676648418
 20
356.9112945665241
 30
0.0
 11
496.7812676648418
 21
356.9112945665241
 31
0.0
  0
SOLID
  5
17BE
330
1768
100
AcDbEntity
  8
2
 62
     0
100
AcDbTrace
 10
365.7812676648418
 20
357.3279612331908
 30
0.0
 11
365.7812676648418
 21
356.4946278998574
 31
0.0
 12
363.2812676648418
 22
356.9112945665241
 32
0.0
 13
363.2812676648418
 23
356.9112945665241
 33
0.0
  0
SOLID
  5
17BF
330
1768
100
AcDbEntity
  8
2
 62
     0
100
AcDbTrace
 10
496.7812676648418
 20
357.3279612331908
 30
0.0
 11
496.7812676648418
 21
356.4946278998574
 31
0.0
 12
499.2812676648418
 22
356.9112945665241
 32
0.0
 13
499.2812676648418
 23
356.9112945665241
 33
0.0
  0
MTEXT
  5
17C0
330
1768
100
AcDbEntity
  8
2
 62
     0
100
AcDbMText
 10
431.2812676648418
 20
358.6612945665241
 30
0.0
 40
2.5
 41
0.0
 71
     5
 72
     1
  1
\A1;136
  7
ＭＳ明朝
 73
     1
 44
1.0
  0
POINT
  5
17C1
330
1768
100
AcDbEntity
  8
DEFPOINTS
 62
     0
100
AcDbPoint
 10
363.2812676648418
 20
339.8267241387026
 30
0.0
  0
POINT
  5
17C2
330
1768
100
AcDbEntity
  8
DEFPOINTS
 62
     0
100
AcDbPoint
 10
499.2812676648418
 20
339.8267241387026
 30
0.0
  0
POINT
  5
17C3
330
1768
100
AcDbEntity
  8
DEFPOINTS
 62
     0
100
AcDbPoint
 10
499.2812676648418
 20
356.9112945665241
 30
0.0
  0
ENDBLK
  5
1773
330
1768
100
AcDbEntity
  8
0
100
AcDbBlockEnd
  0
BLOCK
  5
177E
330
1774
100
AcDbEntity
  8
0
100
AcDbBlockBegin
  2
*D10
 70
     1
 10
0.0
 20
0.0
 30
0.0
  3
*D10
  1

  0
LINE
  5
17C4
330
1774
100
AcDbEntity
  8
2
 62
     0
370
    -2
100
AcDbLine
 10
162.0949875068254
 20
334.8267241387026
 30
0.0
 11
162.0949875068254
 21
357.1612945665241
 31
0.0
  0
LINE
  5
17C5
330
1774
100
AcDbEntity
  8
2
 62
     0
370
    -2
100
AcDbLine
 10
298.0949875068254
 20
334.8267241387026
 30
0.0
 11
298.0949875068254
 21
357.1612945665241
 31
0.0
  0
LINE
  5
17C6
330
1774
100
AcDbEntity
  8
2
 62
     0
370
    -2
100
AcDbLine
 10
164.5949875068254
 20
355.9112945665241
 30
0.0
 11
295.5949875068254
 21
355.9112945665241
 31
0.0
  0
SOLID
  5
17C7
330
1774
100
AcDbEntity
  8
2
 62
     0
100
AcDbTrace
 10
164.5949875068254
 20
356.3279612331908
 30
0.0
 11
164.5949875068254
 21
355.4946278998574
 31
0.0
 12
162.0949875068254
 22
355.9112945665241
 32
0.0
 13
162.0949875068254
 23
355.9112945665241
 33
0.0
  0
SOLID
  5
17C8
330
1774
100
AcDbEntity
  8
2
 62
     0
100
AcDbTrace
 10
295.5949875068254
 20
356.3279612331908
 30
0.0
 11
295.5949875068254
 21
355.4946278998574
 31
0.0
 12
298.0949875068254
 22
355.9112945665241
 32
0.0
 13
298.0949875068254
 23
355.9112945665241
 33
0.0
  0
MTEXT
  5
17C9
330
1774
100
AcDbEntity
  8
2
 62
     0
100
AcDbMText
 10
230.0949875068254
 20
357.6612945665241
 30
0.0
 40
2.5
 41
0.0
 71
     5
 72
     1
  1
\A1;136
  7
ＭＳ明朝
 73
     1
 44
1.0
  0
POINT
  5
17CA
330
1774
100
AcDbEntity
  8
DEFPOINTS
 62
     0
100
AcDbPoint
 10
162.0949875068254
 20
333.3267241387026
 30
0.0
  0
POINT
  5
17CB
330
1774
100
AcDbEntity
  8
DEFPOINTS
 62
     0
100
AcDbPoint
 10
298.0949875068254
 20
333.3267241387026
 30
0.0
  0
POINT
  5
17CC
330
1774
100
AcDbEntity
  8
DEFPOINTS
 62
     0
100
AcDbPoint
 10
298.0949875068254
 20
355.9112945665241
 30
0.0
  0
ENDBLK
  5
177F
330
1774
100
AcDbEntity
  8
0
100
AcDbBlockEnd
  0
BLOCK
  5
178A
330
1780
100
AcDbEntity
  8
0
100
AcDbBlockBegin
  2
*D11
 70
     1
 10
0.0
 20
0.0
 30
0.0
  3
*D11
  1

  0
LINE
  5
17CD
330
1780
100
AcDbEntity
  8
2
 62
     0
370
    -2
100
AcDbLine
 10
361.7812676648418
 20
275.8267241387026
 30
0.0
 11
350.8449871548123
 21
275.8267241387026
 31
0.0
  0
LINE
  5
17CE
330
1780
100
AcDbEntity
  8
2
 62
     0
370
    -2
100
AcDbLine
 10
361.7812676648418
 20
339.8267241387026
 30
0.0
 11
350.8449871548123
 21
339.8267241387026
 31
0.0
  0
LINE
  5
17CF
330
1780
100
AcDbEntity
  8
2
 62
     0
370
    -2
100
AcDbLine
 10
352.0949871548123
 20
278.3267241387026
 30
0.0
 11
352.0949871548123
 21
337.3267241387026
 31
0.0
  0
SOLID
  5
17D0
330
1780
100
AcDbEntity
  8
2
 62
     0
100
AcDbTrace
 10
351.6783204881456
 20
278.3267241387026
 30
0.0
 11
352.511653821479
 21
278.3267241387026
 31
0.0
 12
352.0949871548123
 22
275.8267241387026
 32
0.0
 13
352.0949871548123
 23
275.8267241387026
 33
0.0
  0
SOLID
  5
17D1
330
1780
100
AcDbEntity
  8
2
 62
     0
100
AcDbTrace
 10
351.6783204881456
 20
337.3267241387026
 30
0.0
 11
352.511653821479
 21
337.3267241387026
 31
0.0
 12
352.0949871548123
 22
339.8267241387026
 32
0.0
 13
352.0949871548123
 23
339.8267241387026
 33
0.0
  0
MTEXT
  5
17D2
330
1780
100
AcDbEntity
  8
2
 62
     0
100
AcDbMText
 10
350.3449871548122
 20
307.8267241387026
 30
0.0
 40
2.5
 41
0.0
 71
     5
 72
     1
  1
\A1;64
  7
ＭＳ明朝
 11
0.0000000000000001
 21
1.0
 31
0.0
 73
     1
 44
1.0
  0
POINT
  5
17D3
330
1780
100
AcDbEntity
  8
DEFPOINTS
 62
     0
100
AcDbPoint
 10
363.2812676648418
 20
275.8267241387026
 30
0.0
  0
POINT
  5
17D4
330
1780
100
AcDbEntity
  8
DEFPOINTS
 62
     0
100
AcDbPoint
 10
363.2812676648418
 20
339.8267241387026
 30
0.0
  0
POINT
  5
17D5
330
1780
100
AcDbEntity
  8
DEFPOINTS
 62
     0
100
AcDbPoint
 10
352.0949871548123
 20
339.8267241387026
 30
0.0
  0
ENDBLK
  5
178B
330
1780
100
AcDbEntity
  8
0
100
AcDbBlockEnd
  0
BLOCK
  5
1817
330
180D
100
AcDbEntity
  8
0
100
AcDbBlockBegin
  2
*D13
 70
     1
 10
0.0
 20
0.0
 30
0.0
  3
*D13
  1

  0
LINE
  5
180E
330
180D
100
AcDbEntity
  8
2
 62
     0
370
    -2
100
AcDbLine
 10
377.2001665795753
 20
102.240187572948
 30
0.0
 11
377.2001665795753
 21
109.490187572948
 31
0.0
  0
LINE
  5
180F
330
180D
100
AcDbEntity
  8
2
 62
     0
370
    -2
100
AcDbLine
 10
480.2001665795753
 20
102.240187572948
 30
0.0
 11
480.2001665795753
 21
109.490187572948
 31
0.0
  0
LINE
  5
1810
330
180D
100
AcDbEntity
  8
2
 62
     0
370
    -2
100
AcDbLine
 10
379.7001665795753
 20
108.240187572948
 30
0.0
 11
477.7001665795753
 21
108.240187572948
 31
0.0
  0
SOLID
  5
1811
330
180D
100
AcDbEntity
  8
2
 62
     0
100
AcDbTrace
 10
379.7001665795753
 20
108.6568542396147
 30
0.0
 11
379.7001665795753
 21
107.8235209062814
 31
0.0
 12
377.2001665795753
 22
108.240187572948
 32
0.0
 13
377.2001665795753
 23
108.240187572948
 33
0.0
  0
SOLID
  5
1812
330
180D
100
AcDbEntity
  8
2
 62
     0
100
AcDbTrace
 10
477.7001665795753
 20
108.6568542396147
 30
0.0
 11
477.7001665795753
 21
107.8235209062814
 31
0.0
 12
480.2001665795753
 22
108.240187572948
 32
0.0
 13
480.2001665795753
 23
108.240187572948
 33
0.0
  0
MTEXT
  5
1813
330
180D
100
AcDbEntity
  8
2
 62
     0
100
AcDbMText
 10
428.7001665795753
 20
109.990187572948
 30
0.0
 40
2.5
 41
0.0
 71
     5
 72
     1
  1
103
  7
ＭＳ明朝
 73
     1
 44
1.0
  0
POINT
  5
1814
330
180D
100
AcDbEntity
  8
DEFPOINTS
 62
     0
100
AcDbPoint
 10
377.2001665795753
 20
100.740187572948
 30
0.0
  0
POINT
  5
1815
330
180D
100
AcDbEntity
  8
DEFPOINTS
 62
     0
100
AcDbPoint
 10
480.2001665795753
 20
100.740187572948
 30
0.0
  0
POINT
  5
1816
330
180D
100
AcDbEntity
  8
DEFPOINTS
 62
     0
100
AcDbPoint
 10
480.2001665795753
 20
108.240187572948
 30
0.0
  0
ENDBLK
  5
1818
330
180D
100
AcDbEntity
  8
0
100
AcDbBlockEnd
  0
BLOCK
  5
1823
330
1819
100
AcDbEntity
  8
0
100
AcDbBlockBegin
  2
*D14
 70
     1
 10
0.0
 20
0.0
 30
0.0
  3
*D14
  1

  0
LINE
  5
181A
330
1819
100
AcDbEntity
  8
2
 62
     0
370
    -2
100
AcDbLine
 10
376.7001665795753
 20
99.74018757294807
 30
0.0
 11
369.4501665795753
 21
99.74018757294807
 31
0.0
  0
LINE
  5
181B
330
1819
100
AcDbEntity
  8
2
 62
     0
370
    -2
100
AcDbLine
 10
376.7001665795753
 20
21.74018757294808
 30
0.0
 11
369.4501665795753
 21
21.74018757294809
 31
0.0
  0
LINE
  5
181C
330
1819
100
AcDbEntity
  8
2
 62
     0
370
    -2
100
AcDbLine
 10
370.7001665795753
 20
97.24018757294807
 30
0.0
 11
370.7001665795753
 21
24.24018757294809
 31
0.0
  0
SOLID
  5
181D
330
1819
100
AcDbEntity
  8
2
 62
     0
100
AcDbTrace
 10
370.2834999129086
 20
97.24018757294807
 30
0.0
 11
371.116833246242
 21
97.24018757294807
 31
0.0
 12
370.7001665795753
 22
99.74018757294807
 32
0.0
 13
370.7001665795753
 23
99.74018757294807
 33
0.0
  0
SOLID
  5
181E
330
1819
100
AcDbEntity
  8
2
 62
     0
100
AcDbTrace
 10
370.2834999129086
 20
24.24018757294809
 30
0.0
 11
371.116833246242
 21
24.24018757294809
 31
0.0
 12
370.7001665795753
 22
21.74018757294809
 32
0.0
 13
370.7001665795753
 23
21.74018757294809
 33
0.0
  0
MTEXT
  5
181F
330
1819
100
AcDbEntity
  8
2
 62
     0
100
AcDbMText
 10
368.9501665795753
 20
60.74018757294814
 30
0.0
 40
2.5
 41
0.0
 71
     5
 72
     1
  1
78
  7
ＭＳ明朝
 11
0.0000000000000001
 21
1.0
 31
0.0
 73
     1
 44
1.0
  0
POINT
  5
1820
330
1819
100
AcDbEntity
  8
DEFPOINTS
 62
     0
100
AcDbPoint
 10
378.2001665795753
 20
99.74018757294807
 30
0.0
  0
POINT
  5
1821
330
1819
100
AcDbEntity
  8
DEFPOINTS
 62
     0
100
AcDbPoint
 10
378.2001665795753
 20
21.74018757294808
 30
0.0
  0
POINT
  5
1822
330
1819
100
AcDbEntity
  8
DEFPOINTS
 62
     0
100
AcDbPoint
 10
370.7001665795753
 20
21.74018757294809
 30
0.0
  0
ENDBLK
  5
1824
330
1819
100
AcDbEntity
  8
0
100
AcDbBlockEnd
  0
BLOCK
  5
1852
330
1848
100
AcDbEntity
  8
0
100
AcDbBlockBegin
  2
*D16
 70
     1
 10
0.0
 20
0.0
 30
0.0
  3
*D16
  1

  0
LINE
  5
18CE
330
1848
100
AcDbEntity
  8
2
 62
     0
370
    -2
100
AcDbLine
 10
361.7812517211151
 20
87.9205630481908
 30
0.0
 11
361.7812517211151
 21
95.1705630481908
 31
0.0
  0
LINE
  5
18CF
330
1848
100
AcDbEntity
  8
2
 62
     0
370
    -2
100
AcDbLine
 10
498.7812517211151
 20
87.9205630481908
 30
0.0
 11
498.7812517211151
 21
95.1705630481908
 31
0.0
  0
LINE
  5
18D0
330
1848
100
AcDbEntity
  8
2
 62
     0
370
    -2
100
AcDbLine
 10
364.281251721115
 20
93.9205630481908
 30
0.0
 11
496.281251721115
 21
93.9205630481908
 31
0.0
  0
SOLID
  5
18D1
330
1848
100
AcDbEntity
  8
2
 62
     0
100
AcDbTrace
 10
364.281251721115
 20
94.33722971485748
 30
0.0
 11
364.281251721115
 21
93.50389638152412
 31
0.0
 12
361.7812517211151
 22
93.9205630481908
 32
0.0
 13
361.7812517211151
 23
93.9205630481908
 33
0.0
  0
SOLID
  5
18D2
330
1848
100
AcDbEntity
  8
2
 62
     0
100
AcDbTrace
 10
496.281251721115
 20
94.33722971485748
 30
0.0
 11
496.281251721115
 21
93.50389638152412
 31
0.0
 12
498.7812517211151
 22
93.9205630481908
 32
0.0
 13
498.7812517211151
 23
93.9205630481908
 33
0.0
  0
MTEXT
  5
18D3
330
1848
100
AcDbEntity
  8
2
 62
     0
100
AcDbMText
 10
430.281251721115
 20
95.67056304819081
 30
0.0
 40
2.5
 41
0.0
 71
     5
 72
     1
  1
137
  7
ＭＳ明朝
 73
     1
 44
1.0
  0
POINT
  5
18D4
330
1848
100
AcDbEntity
  8
DEFPOINTS
 62
     0
100
AcDbPoint
 10
361.7812517211151
 20
86.4205630481908
 30
0.0
  0
POINT
  5
18D5
330
1848
100
AcDbEntity
  8
DEFPOINTS
 62
     0
100
AcDbPoint
 10
498.7812517211151
 20
86.4205630481908
 30
0.0
  0
POINT
  5
18D6
330
1848
100
AcDbEntity
  8
DEFPOINTS
 62
     0
100
AcDbPoint
 10
498.7812517211151
 20
93.9205630481908
 30
0.0
  0
ENDBLK
  5
1853
330
1848
100
AcDbEntity
  8
0
100
AcDbBlockEnd
  0
BLOCK
  5
185E
330
1854
100
AcDbEntity
  8
0
100
AcDbBlockBegin
  2
*D17
 70
     1
 10
0.0
 20
0.0
 30
0.0
  3
*D17
  1

  0
LINE
  5
18D7
330
1854
100
AcDbEntity
  8
2
 62
     0
370
    -2
100
AcDbLine
 10
361.2812517211151
 20
85.4205630481908
 30
0.0
 11
354.031251721115
 21
85.4205630481908
 31
0.0
  0
LINE
  5
18D8
330
1854
100
AcDbEntity
  8
2
 62
     0
370
    -2
100
AcDbLine
 10
361.2812517211151
 20
20.42056304819082
 30
0.0
 11
354.031251721115
 21
20.42056304819083
 31
0.0
  0
LINE
  5
18D9
330
1854
100
AcDbEntity
  8
2
 62
     0
370
    -2
100
AcDbLine
 10
355.2812517211151
 20
82.9205630481908
 30
0.0
 11
355.2812517211151
 21
22.92056304819083
 31
0.0
  0
SOLID
  5
18DA
330
1854
100
AcDbEntity
  8
2
 62
     0
100
AcDbTrace
 10
354.8645850544484
 20
82.9205630481908
 30
0.0
 11
355.6979183877817
 21
82.9205630481908
 31
0.0
 12
355.2812517211151
 22
85.4205630481908
 32
0.0
 13
355.2812517211151
 23
85.4205630481908
 33
0.0
  0
SOLID
  5
18DB
330
1854
100
AcDbEntity
  8
2
 62
     0
100
AcDbTrace
 10
354.8645850544484
 20
22.92056304819083
 30
0.0
 11
355.6979183877817
 21
22.92056304819083
 31
0.0
 12
355.2812517211151
 22
20.42056304819083
 32
0.0
 13
355.2812517211151
 23
20.42056304819083
 33
0.0
  0
MTEXT
  5
18DC
330
1854
100
AcDbEntity
  8
2
 62
     0
100
AcDbMText
 10
353.5312517211151
 20
52.92056304819087
 30
0.0
 40
2.5
 41
0.0
 71
     5
 72
     1
  1
65
  7
ＭＳ明朝
 11
0.0000000000000001
 21
1.0
 31
0.0
 73
     1
 44
1.0
  0
POINT
  5
18DD
330
1854
100
AcDbEntity
  8
DEFPOINTS
 62
     0
100
AcDbPoint
 10
362.781251721115
 20
85.4205630481908
 30
0.0
  0
POINT
  5
18DE
330
1854
100
AcDbEntity
  8
DEFPOINTS
 62
     0
100
AcDbPoint
 10
362.781251721115
 20
20.42056304819082
 30
0.0
  0
POINT
  5
18DF
330
1854
100
AcDbEntity
  8
DEFPOINTS
 62
     0
100
AcDbPoint
 10
355.2812517211151
 20
20.42056304819083
 30
0.0
  0
ENDBLK
  5
185F
330
1854
100
AcDbEntity
  8
0
100
AcDbBlockEnd
  0
ENDSEC
  0
SECTION
  2
ENTITIES
  0
DIMENSION
  5
1267
330
18
100
AcDbEntity
  8
2
100
AcDbDimension
  2
*D4
 10
438.2812673956598
 20
229.9112945665241
 30
0.0
 11
431.2812675302508
 21
232.0398659950955
 31
0.0
 70
    32
  1
(14)
 71
     5
 42
13.99999973081799
  3
STANDARD
100
AcDbAlignedDimension
 13
424.2812676648417
 23
219.2190091957526
 33
0.0
 14
438.2812673956598
 24
173.5190091957526
 34
0.0
100
AcDbRotatedDimension
1001
ACAD
1000
DSTYLE
1002
{
1070
    40
1040
1.0
1002
}
  0
DIMENSION
  5
1268
330
18
100
AcDbEntity
  8
2
100
AcDbDimension
  2
*D5
 10
363.2812676648418
 20
229.9112945665241
 30
0.0
 11
361.2812676648418
 21
231.6612945665241
 31
0.0
 70
    32
 71
     5
 42
4.0
  3
STANDARD
100
AcDbAlignedDimension
 13
359.2812676648418
 23
220.2190091957526
 33
0.0
 14
363.2812676648418
 24
223.2190091957526
 34
0.0
100
AcDbRotatedDimension
1001
ACAD
1000
DSTYLE
1002
{
1070
    40
1040
1.0
1002
}
  0
DIMENSION
  5
1269
330
18
100
AcDbEntity
  8
2
100
AcDbDimension
  2
*D6
 10
424.2812676648417
 20
229.9112945665241
 30
0.0
 11
393.7812676648418
 21
231.6612945665241
 31
0.0
 70
    32
 71
     5
 42
61.0
  3
STANDARD
100
AcDbAlignedDimension
 13
363.2812676648418
 23
223.2190091957526
 33
0.0
 14
424.2812676648417
 24
219.2190091957526
 34
0.0
100
AcDbRotatedDimension
1001
ACAD
1000
DSTYLE
1002
{
1070
    40
1040
1.0
1002
}
  0
MTEXT
  5
126A
330
18
100
AcDbEntity
  8
1
100
AcDbMText
 10
400.7812676648418
 20
210.0190091957526
 30
0.0
 40
3.0
 41
16.5
 71
     1
 72
     5
  1
\fＭＳ Ｐゴシック|b0|i0|c128|p50;合 格 証
 73
     1
 44
1.0
  0
LWPOLYLINE
  5
126B
330
18
100
AcDbEntity
  8
1
370
    15
100
AcDbPolyline
 90
        4
 70
     1
 43
0.0
 10
400.7812676648418
 20
205.5190091957526
 10
416.7812676648418
 20
205.5190091957526
 10
416.7812676648418
 20
191.5190091957526
 10
400.7812676648418
 20
191.5190091957526
  0
LWPOLYLINE
  5
126C
330
18
100
AcDbEntity
  8
1
370
    20
100
AcDbPolyline
 90
        4
 70
     1
 43
0.0
 10
399.7812676648418
 20
210.5190091957526
 10
417.7812676648418
 20
210.5190091957526
 10
417.7812676648418
 20
187.5190091957526
 10
399.7812676648418
 20
187.5190091957526
  0
LWPOLYLINE
  5
126D
330
18
100
AcDbEntity
  8
1
370
     5
100
AcDbPolyline
 90
        4
 70
     1
 43
0.0
 10
398.7812676648418
 20
211.5190091957526
 10
418.7812676648418
 20
211.5190091957526
 10
418.7812676648418
 20
186.5190091957526
 10
398.7812676648418
 20
186.5190091957526
  0
LINE
  5
126E
330
18
100
AcDbEntity
  8
1
100
AcDbLine
 10
424.2812676648417
 20
155.2190091957526
 30
0.0
 11
363.2812676648418
 21
155.2190091957526
 31
0.0
  0
LINE
  5
126F
330
18
100
AcDbEntity
  8
1
100
AcDbLine
 10
363.2812676648418
 20
219.2190091957526
 30
0.0
 11
424.2812676648417
 21
219.2190091957526
 31
0.0
  0
LWPOLYLINE
  5
1270
330
18
100
AcDbEntity
  8
1
100
AcDbPolyline
 90
        6
 70
     0
 43
0.0
 10
270.5949875068254
 20
57.11129425280268
 10
298.0949875068254
 20
57.11129425280268
 10
298.0949875068254
 20
6.111294252802622
 10
162.0949875068254
 20
6.111294252802622
 10
162.0949875068254
 20
57.11129425280262
 10
189.5949875068254
 20
57.11129425280262
  0
LINE
  5
1271
330
18
100
AcDbEntity
  8
1
100
AcDbLine
 10
259.3449875068254
 20
5.911294252802633
 30
0.0
 11
267.3449875068254
 21
5.911294252802633
 31
0.0
  0
LINE
  5
1272
330
18
100
AcDbEntity
  8
1
100
AcDbLine
 10
259.3449875068254
 20
-0.0887057471973663
 30
0.0
 11
267.3449875068254
 21
-0.0887057471973663
 31
0.0
  0
LINE
  5
1273
330
18
100
AcDbEntity
  8
1
100
AcDbLine
 10
259.3449875068254
 20
0.4112942528026338
 30
0.0
 11
267.3449875068254
 21
0.4112942528026338
 31
0.0
  0
LINE
  5
1274
330
18
100
AcDbEntity
  8
1
100
AcDbLine
 10
261.8449875068254
 20
-6.088705747197366
 30
0.0
 11
264.8449875068254
 21
-6.088705747197366
 31
0.0
  0
LINE
  5
1275
330
18
100
AcDbEntity
  8
1
100
AcDbLine
 10
259.3449875068254
 20
-2.588705747197366
 30
0.0
 11
267.3449875068254
 21
-2.588705747197366
 31
0.0
  0
LINE
  5
1276
330
18
100
AcDbEntity
  8
1
100
AcDbLine
 10
259.8449875068254
 20
-3.088705747197366
 30
0.0
 11
266.8449875068254
 21
-3.088705747197366
 31
0.0
  0
LINE
  5
1277
330
18
100
AcDbEntity
  8
1
100
AcDbLine
 10
259.3449875068254
 20
-1.088705747197366
 30
0.0
 11
267.3449875068254
 21
-1.088705747197366
 31
0.0
  0
LINE
  5
1278
330
18
100
AcDbEntity
  8
1
100
AcDbLine
 10
183.3449875068254
 20
0.4112942528026338
 30
0.0
 11
191.3449875068254
 21
0.4112942528026338
 31
0.0
  0
LINE
  5
1279
330
18
100
AcDbEntity
  8
1
100
AcDbLine
 10
183.3449875068254
 20
-0.0887057471973663
 30
0.0
 11
191.3449875068254
 21
-0.0887057471973663
 31
0.0
  0
LINE
  5
127A
330
18
100
AcDbEntity
  8
1
100
AcDbLine
 10
183.3449875068254
 20
5.911294252802633
 30
0.0
 11
191.3449875068254
 21
5.911294252802633
 31
0.0
  0
LINE
  5
127B
330
18
100
AcDbEntity
  8
1
100
AcDbLine
 10
183.8449875068254
 20
-3.088705747197366
 30
0.0
 11
190.8449875068254
 21
-3.088705747197366
 31
0.0
  0
LINE
  5
127C
330
18
100
AcDbEntity
  8
1
100
AcDbLine
 10
183.3449875068254
 20
-2.588705747197366
 30
0.0
 11
191.3449875068254
 21
-2.588705747197366
 31
0.0
  0
LINE
  5
127D
330
18
100
AcDbEntity
  8
1
100
AcDbLine
 10
183.3449875068254
 20
-1.088705747197366
 30
0.0
 11
191.3449875068254
 21
-1.088705747197366
 31
0.0
  0
ARC
  5
127E
330
18
100
AcDbEntity
  8
1
100
AcDbCircle
 10
188.8449875068254
 20
-4.088705747197366
 30
0.0
 40
2.0
100
AcDbArc
 50
270.0
 51
0.0
  0
LINE
  5
127F
330
18
100
AcDbEntity
  8
1
  6
ByBlock
100
AcDbLine
 10
175.2449875068252
 20
-1.588705747197366
 30
0.0
 11
175.2449875068252
 21
-2.588705747197366
 31
0.0
  0
LINE
  5
1280
330
18
100
AcDbEntity
  8
1
  6
ByBlock
100
AcDbLine
 10
180.4449875068253
 20
-1.588705747197366
 30
0.0
 11
180.4449875068253
 21
-2.588705747197366
 31
0.0
  0
LINE
  5
1281
330
18
100
AcDbEntity
  8
1
100
AcDbLine
 10
183.3449875068254
 20
-8.088705747197366
 30
0.0
 11
183.3449875068254
 21
5.911294252802633
 31
0.0
  0
LINE
  5
1282
330
18
100
AcDbEntity
  8
1
100
AcDbLine
 10
181.8449875068254
 20
-8.088705747197366
 30
0.0
 11
181.8449875068254
 21
5.911294252802633
 31
0.0
  0
ARC
  5
1283
330
18
100
AcDbEntity
  8
1
  6
ByBlock
100
AcDbCircle
 10
178.9449875068251
 20
-2.588705747197423
 30
0.0
 40
1.5
100
AcDbArc
 50
270.0
 51
0.0
  0
ARC
  5
1284
330
18
100
AcDbEntity
  8
1
  6
ByBlock
100
AcDbCircle
 10
176.7449875068252
 20
-2.588705747197423
 30
0.0
 40
1.5
100
AcDbArc
 50
180.0
 51
270.0
  0
LINE
  5
1285
330
18
100
AcDbEntity
  8
1
  6
ByBlock
100
AcDbLine
 10
176.7449875068252
 20
-4.088705747197366
 30
0.0
 11
178.9449875068253
 21
-4.088705747197366
 31
0.0
  0
ARC
  5
1286
330
18
100
AcDbEntity
  8
1
100
AcDbCircle
 10
187.3449875068254
 20
-6.088705747197366
 30
0.0
 40
0.5
100
AcDbArc
 50
0.0
 51
180.0
  0
LINE
  5
1287
330
18
100
AcDbEntity
  8
1
100
AcDbLine
 10
185.8449875068254
 20
-6.088705747197366
 30
0.0
 11
188.8449875068254
 21
-6.088705747197366
 31
0.0
  0
LINE
  5
1288
330
18
100
AcDbEntity
  8
1
100
AcDbLine
 10
183.8449875068254
 20
-4.088705747197366
 30
0.0
 11
183.8449875068254
 21
-2.588705747197366
 31
0.0
  0
ARC
  5
1289
330
18
100
AcDbEntity
  8
1
100
AcDbCircle
 10
185.8449875068254
 20
-4.088705747197366
 30
0.0
 40
2.0
100
AcDbArc
 50
180.0
 51
270.0
  0
LINE
  5
128A
330
18
100
AcDbEntity
  8
1
100
AcDbLine
 10
181.8449875068254
 20
-8.088705747197366
 30
0.0
 11
183.3449875068254
 21
-8.088705747197366
 31
0.0
  0
LINE
  5
128B
330
18
100
AcDbEntity
  8
1
100
AcDbLine
 10
173.8449875068254
 20
0.4112942528026338
 30
0.0
 11
181.8449875068254
 21
0.4112942528026338
 31
0.0
  0
LINE
  5
128C
330
18
100
AcDbEntity
  8
1
100
AcDbLine
 10
173.8449875068254
 20
5.911294252802633
 30
0.0
 11
181.8449875068254
 21
5.911294252802633
 31
0.0
  0
LINE
  5
128D
330
18
100
AcDbEntity
  8
1
100
AcDbLine
 10
173.8449875068254
 20
-0.0887057471973663
 30
0.0
 11
181.8449875068254
 21
-0.0887057471973663
 31
0.0
  0
LINE
  5
128E
330
18
100
AcDbEntity
  8
1
100
AcDbLine
 10
173.8449875068254
 20
-1.088705747197366
 30
0.0
 11
181.8449875068254
 21
-1.088705747197366
 31
0.0
  0
LINE
  5
128F
330
18
100
AcDbEntity
  8
1
  6
ByBlock
100
AcDbLine
 10
175.7449875068252
 20
-1.088705747197366
 30
0.0
 11
179.9449875068253
 21
-1.088705747197366
 31
0.0
  0
LINE
  5
1290
330
18
100
AcDbEntity
  8
1
  6
ByBlock
100
AcDbLine
 10
175.2449875068252
 20
-1.88870574719732
 30
0.0
 11
180.4449875068255
 21
-1.88870574719732
 31
0.0
  0
LINE
  5
1291
330
18
100
AcDbEntity
  8
1
  6
ByBlock
100
AcDbLine
 10
178.2449875068252
 20
-1.088705747197366
 30
0.0
 11
177.4449875068253
 21
-1.88870574719732
 31
0.0
  0
LINE
  5
1292
330
18
100
AcDbEntity
  8
1
100
AcDbLine
 10
173.8449875068254
 20
-1.088705747197366
 30
0.0
 11
173.8449875068254
 21
6.111294252802622
 31
0.0
  0
ARC
  5
1293
330
18
100
AcDbEntity
  8
1
  6
ByBlock
100
AcDbCircle
 10
175.7449875068252
 20
-1.588705747197423
 30
0.0
 40
0.5
100
AcDbArc
 50
90.0
 51
180.0
  0
LINE
  5
1294
330
18
100
AcDbEntity
  8
1
100
AcDbLine
 10
174.8449875068254
 20
-1.088705747197366
 30
0.0
 11
174.8449875068254
 21
-0.0887057471973663
 31
0.0
  0
ARC
  5
1295
330
18
100
AcDbEntity
  8
1
  6
ByBlock
100
AcDbCircle
 10
179.9449875068251
 20
-1.588705747197423
 30
0.0
 40
0.5
100
AcDbArc
 50
0.0
 51
90.0
  0
LINE
  5
1296
330
18
100
AcDbEntity
  8
1
100
AcDbLine
 10
184.3449875068254
 20
-1.088705747197366
 30
0.0
 11
184.3449875068254
 21
-0.0887057471973663
 31
0.0
  0
LINE
  5
1297
330
18
100
AcDbEntity
  8
1
100
AcDbLine
 10
180.8449875068254
 20
-1.088705747197366
 30
0.0
 11
180.8449875068254
 21
-0.0887057471973663
 31
0.0
  0
CIRCLE
  5
1298
330
18
100
AcDbEntity
  8
1
  6
ByBlock
100
AcDbCircle
 10
177.8449875068254
 20
14.91129425280269
 30
0.0
 40
2.799999999999999
  0
LINE
  5
1299
330
18
100
AcDbEntity
  8
1
  6
ByBlock
100
AcDbLine
 10
177.3449875068254
 20
16.41129425280269
 30
0.0
 11
177.3449875068254
 21
15.91129425280269
 31
0.0
  0
LINE
  5
129A
330
18
100
AcDbEntity
  8
1
  6
ByBlock
100
AcDbLine
 10
178.3449875068254
 20
15.91129425280269
 30
0.0
 11
178.3449875068254
 21
16.41129425280269
 31
0.0
  0
LINE
  5
129B
330
18
100
AcDbEntity
  8
1
  6
ByBlock
100
AcDbLine
 10
176.3449875068254
 20
14.41129425280269
 30
0.0
 11
176.8449875068254
 21
14.41129425280269
 31
0.0
  0
LINE
  5
129C
330
18
100
AcDbEntity
  8
1
  6
ByBlock
100
AcDbLine
 10
176.8449875068254
 20
15.41129425280269
 30
0.0
 11
176.3449875068254
 21
15.41129425280269
 31
0.0
  0
LINE
  5
129D
330
18
100
AcDbEntity
  8
1
  6
ByBlock
100
AcDbLine
 10
176.3449875068254
 20
15.41129425280269
 30
0.0
 11
176.3449875068254
 21
14.41129425280269
 31
0.0
  0
ARC
  5
129E
330
18
100
AcDbEntity
  8
1
  6
ByBlock
100
AcDbCircle
 10
178.8449875068254
 20
15.91129425280269
 30
0.0
 40
0.5
100
AcDbArc
 50
180.0
 51
270.0
  0
LINE
  5
129F
330
18
100
AcDbEntity
  8
1
  6
ByBlock
100
AcDbLine
 10
177.3449875068254
 20
13.91129425280269
 30
0.0
 11
177.3449875068254
 21
13.41129425280269
 31
0.0
  0
LINE
  5
12A0
330
18
100
AcDbEntity
  8
1
  6
ByBlock
100
AcDbLine
 10
179.3449875068254
 20
15.41129425280269
 30
0.0
 11
178.8449875068254
 21
15.41129425280269
 31
0.0
  0
ARC
  5
12A1
330
18
100
AcDbEntity
  8
1
  6
ByBlock
100
AcDbCircle
 10
178.8449875068254
 20
13.91129425280269
 30
0.0
 40
0.5
100
AcDbArc
 50
90.0
 51
180.0
  0
LINE
  5
12A2
330
18
100
AcDbEntity
  8
1
  6
ByBlock
100
AcDbLine
 10
178.8449875068254
 20
14.41129425280269
 30
0.0
 11
179.3449875068254
 21
14.41129425280269
 31
0.0
  0
LINE
  5
12A3
330
18
100
AcDbEntity
  8
1
  6
ByBlock
100
AcDbLine
 10
178.3449875068254
 20
13.41129425280269
 30
0.0
 11
178.3449875068254
 21
13.91129425280269
 31
0.0
  0
LINE
  5
12A4
330
18
100
AcDbEntity
  8
1
  6
ByBlock
100
AcDbLine
 10
179.3449875068254
 20
14.41129425280269
 30
0.0
 11
179.3449875068254
 21
15.41129425280269
 31
0.0
  0
LINE
  5
12A5
330
18
100
AcDbEntity
  8
1
  6
ByBlock
100
AcDbLine
 10
177.3449875068254
 20
13.41129425280269
 30
0.0
 11
178.3449875068254
 21
13.41129425280269
 31
0.0
  0
ARC
  5
12A6
330
18
100
AcDbEntity
  8
1
  6
ByBlock
100
AcDbCircle
 10
176.8449875068254
 20
15.91129425280269
 30
0.0
 40
0.5
100
AcDbArc
 50
270.0
 51
0.0
  0
ARC
  5
12A7
330
18
100
AcDbEntity
  8
1
  6
ByBlock
100
AcDbCircle
 10
176.8449875068254
 20
13.91129425280269
 30
0.0
 40
0.5
100
AcDbArc
 50
0.0
 51
90.0
  0
LINE
  5
12A8
330
18
100
AcDbEntity
  8
1
  6
ByBlock
100
AcDbLine
 10
178.3449875068254
 20
16.41129425280269
 30
0.0
 11
177.3449875068254
 21
16.41129425280269
 31
0.0
  0
LINE
  5
12A9
330
18
100
AcDbEntity
  8
1
100
AcDbLine
 10
223.8449875068254
 20
-6.088705747197366
 30
0.0
 11
226.8449875068254
 21
-6.088705747197366
 31
0.0
  0
ARC
  5
12AA
330
18
100
AcDbEntity
  8
1
100
AcDbCircle
 10
225.3449875068254
 20
-6.088705747197366
 30
0.0
 40
0.5
100
AcDbArc
 50
0.0
 51
180.0
  0
LINE
  5
12AB
330
18
100
AcDbEntity
  8
1
100
AcDbLine
 10
221.3449875068254
 20
-2.588705747197366
 30
0.0
 11
229.3449875068254
 21
-2.588705747197366
 31
0.0
  0
LINE
  5
12AC
330
18
100
AcDbEntity
  8
1
100
AcDbLine
 10
221.3449875068254
 20
-1.088705747197366
 30
0.0
 11
229.3449875068254
 21
-1.088705747197366
 31
0.0
  0
LINE
  5
12AD
330
18
100
AcDbEntity
  8
1
100
AcDbLine
 10
221.3449875068254
 20
-0.0887057471973663
 30
0.0
 11
229.3449875068254
 21
-0.0887057471973663
 31
0.0
  0
LINE
  5
12AE
330
18
100
AcDbEntity
  8
1
100
AcDbLine
 10
221.3449875068254
 20
0.4112942528026338
 30
0.0
 11
229.3449875068254
 21
0.4112942528026338
 31
0.0
  0
LINE
  5
12AF
330
18
100
AcDbEntity
  8
1
100
AcDbLine
 10
221.3449875068254
 20
5.911294252802633
 30
0.0
 11
229.3449875068254
 21
5.911294252802633
 31
0.0
  0
LINE
  5
12B0
330
18
100
AcDbEntity
  8
1
100
AcDbLine
 10
221.8449875068254
 20
-3.088705747197366
 30
0.0
 11
228.8449875068254
 21
-3.088705747197366
 31
0.0
  0
LINE
  5
12B1
330
18
100
AcDbEntity
  8
1
100
AcDbLine
 10
202.3449875068254
 20
-0.0887057471973663
 30
0.0
 11
210.3449875068254
 21
-0.0887057471973663
 31
0.0
  0
LINE
  5
12B2
330
18
100
AcDbEntity
  8
1
100
AcDbLine
 10
202.3449875068254
 20
0.4112942528026338
 30
0.0
 11
210.3449875068254
 21
0.4112942528026338
 31
0.0
  0
LINE
  5
12B3
330
18
100
AcDbEntity
  8
1
100
AcDbLine
 10
202.3449875068254
 20
5.911294252802633
 30
0.0
 11
210.3449875068254
 21
5.911294252802633
 31
0.0
  0
LINE
  5
12B4
330
18
100
AcDbEntity
  8
1
100
AcDbLine
 10
204.8449875068254
 20
-6.088705747197366
 30
0.0
 11
207.8449875068254
 21
-6.088705747197366
 31
0.0
  0
LINE
  5
12B5
330
18
100
AcDbEntity
  8
1
100
AcDbLine
 10
202.8449875068254
 20
-3.088705747197366
 30
0.0
 11
209.8449875068254
 21
-3.088705747197366
 31
0.0
  0
LINE
  5
12B6
330
18
100
AcDbEntity
  8
1
100
AcDbLine
 10
202.3449875068254
 20
-2.588705747197366
 30
0.0
 11
210.3449875068254
 21
-2.588705747197366
 31
0.0
  0
LINE
  5
12B7
330
18
100
AcDbEntity
  8
1
100
AcDbLine
 10
202.3449875068254
 20
-1.088705747197366
 30
0.0
 11
210.3449875068254
 21
-1.088705747197366
 31
0.0
  0
LINE
  5
12B8
330
18
100
AcDbEntity
  8
1
100
AcDbLine
 10
200.8449875068254
 20
-8.088705747197366
 30
0.0
 11
200.8449875068254
 21
5.911294252802633
 31
0.0
  0
LINE
  5
12B9
330
18
100
AcDbEntity
  8
1
100
AcDbLine
 10
202.3449875068254
 20
-8.088705747197366
 30
0.0
 11
202.3449875068254
 21
5.911294252802633
 31
0.0
  0
LINE
  5
12BA
330
18
100
AcDbEntity
  8
1
100
AcDbLine
 10
192.8449875068254
 20
-8.088705747197366
 30
0.0
 11
192.8449875068254
 21
5.911294252802633
 31
0.0
  0
LINE
  5
12BB
330
18
100
AcDbEntity
  8
1
100
AcDbLine
 10
191.3449875068254
 20
-8.088705747197366
 30
0.0
 11
191.3449875068254
 21
5.911294252802633
 31
0.0
  0
LINE
  5
12BC
330
18
100
AcDbEntity
  8
1
100
AcDbLine
 10
195.3449875068254
 20
-6.088705747197366
 30
0.0
 11
198.3449875068254
 21
-6.088705747197366
 31
0.0
  0
LINE
  5
12BD
330
18
100
AcDbEntity
  8
1
100
AcDbLine
 10
193.3449875068254
 20
-3.088705747197366
 30
0.0
 11
200.3449875068254
 21
-3.088705747197366
 31
0.0
  0
LINE
  5
12BE
330
18
100
AcDbEntity
  8
1
100
AcDbLine
 10
192.8449875068254
 20
-2.588705747197366
 30
0.0
 11
200.8449875068254
 21
-2.588705747197366
 31
0.0
  0
LINE
  5
12BF
330
18
100
AcDbEntity
  8
1
100
AcDbLine
 10
193.3449875068254
 20
-4.088705747197366
 30
0.0
 11
193.3449875068254
 21
-2.588705747197366
 31
0.0
  0
ARC
  5
12C0
330
18
100
AcDbEntity
  8
1
100
AcDbCircle
 10
196.8449875068254
 20
-6.088705747197366
 30
0.0
 40
0.5
100
AcDbArc
 50
0.0
 51
180.0
  0
ARC
  5
12C1
330
18
100
AcDbEntity
  8
1
100
AcDbCircle
 10
195.3449875068254
 20
-4.088705747197366
 30
0.0
 40
2.0
100
AcDbArc
 50
180.0
 51
270.0
  0
LINE
  5
12C2
330
18
100
AcDbEntity
  8
1
100
AcDbLine
 10
191.3449875068254
 20
-8.088705747197366
 30
0.0
 11
192.8449875068254
 21
-8.088705747197366
 31
0.0
  0
LINE
  5
12C3
330
18
100
AcDbEntity
  8
1
100
AcDbLine
 10
190.8449875068254
 20
-4.088705747197366
 30
0.0
 11
190.8449875068254
 21
-2.588705747197366
 31
0.0
  0
LINE
  5
12C4
330
18
100
AcDbEntity
  8
1
100
AcDbLine
 10
202.8449875068254
 20
-4.088705747197366
 30
0.0
 11
202.8449875068254
 21
-2.588705747197366
 31
0.0
  0
ARC
  5
12C5
330
18
100
AcDbEntity
  8
1
100
AcDbCircle
 10
204.8449875068254
 20
-4.088705747197366
 30
0.0
 40
2.0
100
AcDbArc
 50
180.0
 51
270.0
  0
LINE
  5
12C6
330
18
100
AcDbEntity
  8
1
100
AcDbLine
 10
200.8449875068254
 20
-8.088705747197366
 30
0.0
 11
202.3449875068254
 21
-8.088705747197366
 31
0.0
  0
ARC
  5
12C7
330
18
100
AcDbEntity
  8
1
100
AcDbCircle
 10
206.3449875068254
 20
-6.088705747197366
 30
0.0
 40
0.5
100
AcDbArc
 50
0.0
 51
180.0
  0
LINE
  5
12C8
330
18
100
AcDbEntity
  8
1
100
AcDbLine
 10
200.3449875068254
 20
-4.088705747197366
 30
0.0
 11
200.3449875068254
 21
-2.588705747197366
 31
0.0
  0
ARC
  5
12C9
330
18
100
AcDbEntity
  8
1
100
AcDbCircle
 10
198.3449875068254
 20
-4.088705747197366
 30
0.0
 40
2.0
100
AcDbArc
 50
270.0
 51
0.0
  0
LINE
  5
12CA
330
18
100
AcDbEntity
  8
1
100
AcDbLine
 10
192.8449875068254
 20
0.4112942528026338
 30
0.0
 11
200.8449875068254
 21
0.4112942528026338
 31
0.0
  0
LINE
  5
12CB
330
18
100
AcDbEntity
  8
1
100
AcDbLine
 10
192.8449875068254
 20
-0.0887057471973663
 30
0.0
 11
200.8449875068254
 21
-0.0887057471973663
 31
0.0
  0
LINE
  5
12CC
330
18
100
AcDbEntity
  8
1
100
AcDbLine
 10
192.8449875068254
 20
5.911294252802633
 30
0.0
 11
200.8449875068254
 21
5.911294252802633
 31
0.0
  0
LINE
  5
12CD
330
18
100
AcDbEntity
  8
1
100
AcDbLine
 10
192.8449875068254
 20
-1.088705747197366
 30
0.0
 11
200.8449875068254
 21
-1.088705747197366
 31
0.0
  0
LINE
  5
12CE
330
18
100
AcDbEntity
  8
1
100
AcDbLine
 10
190.3449875068254
 20
-1.088705747197366
 30
0.0
 11
190.3449875068254
 21
-0.0887057471973663
 31
0.0
  0
LINE
  5
12CF
330
18
100
AcDbEntity
  8
1
100
AcDbLine
 10
193.8449875068254
 20
-1.088705747197366
 30
0.0
 11
193.8449875068254
 21
-0.0887057471973663
 31
0.0
  0
LINE
  5
12D0
330
18
100
AcDbEntity
  8
1
100
AcDbLine
 10
199.8449875068254
 20
-1.088705747197366
 30
0.0
 11
199.8449875068254
 21
-0.0887057471973663
 31
0.0
  0
LINE
  5
12D1
330
18
100
AcDbEntity
  8
1
100
AcDbLine
 10
203.3449875068254
 20
-1.088705747197366
 30
0.0
 11
203.3449875068254
 21
-0.0887057471973663
 31
0.0
  0
LINE
  5
12D2
330
18
100
AcDbEntity
  8
1
100
AcDbLine
 10
219.8449875068254
 20
-8.088705747197366
 30
0.0
 11
219.8449875068254
 21
5.911294252802633
 31
0.0
  0
LINE
  5
12D3
330
18
100
AcDbEntity
  8
1
100
AcDbLine
 10
221.3449875068254
 20
-8.088705747197366
 30
0.0
 11
221.3449875068254
 21
5.911294252802633
 31
0.0
  0
LINE
  5
12D4
330
18
100
AcDbEntity
  8
1
100
AcDbLine
 10
210.3449875068254
 20
-8.088705747197366
 30
0.0
 11
210.3449875068254
 21
5.911294252802633
 31
0.0
  0
LINE
  5
12D5
330
18
100
AcDbEntity
  8
1
100
AcDbLine
 10
211.8449875068254
 20
-8.088705747197366
 30
0.0
 11
211.8449875068254
 21
5.911294252802633
 31
0.0
  0
LINE
  5
12D6
330
18
100
AcDbEntity
  8
1
100
AcDbLine
 10
214.3449875068254
 20
-6.088705747197366
 30
0.0
 11
217.3449875068254
 21
-6.088705747197366
 31
0.0
  0
LINE
  5
12D7
330
18
100
AcDbEntity
  8
1
100
AcDbLine
 10
212.3449875068254
 20
-3.088705747197366
 30
0.0
 11
219.3449875068254
 21
-3.088705747197366
 31
0.0
  0
LINE
  5
12D8
330
18
100
AcDbEntity
  8
1
100
AcDbLine
 10
211.8449875068254
 20
-2.588705747197366
 30
0.0
 11
219.8449875068254
 21
-2.588705747197366
 31
0.0
  0
LINE
  5
12D9
330
18
100
AcDbEntity
  8
1
100
AcDbLine
 10
209.8449875068254
 20
-4.088705747197366
 30
0.0
 11
209.8449875068254
 21
-2.588705747197366
 31
0.0
  0
LINE
  5
12DA
330
18
100
AcDbEntity
  8
1
100
AcDbLine
 10
212.3449875068254
 20
-4.088705747197366
 30
0.0
 11
212.3449875068254
 21
-2.588705747197366
 31
0.0
  0
ARC
  5
12DB
330
18
100
AcDbEntity
  8
1
100
AcDbCircle
 10
214.3449875068254
 20
-4.088705747197366
 30
0.0
 40
2.0
100
AcDbArc
 50
180.0
 51
270.0
  0
ARC
  5
12DC
330
18
100
AcDbEntity
  8
1
100
AcDbCircle
 10
215.8449875068254
 20
-6.088705747197366
 30
0.0
 40
0.5
100
AcDbArc
 50
0.0
 51
180.0
  0
LINE
  5
12DD
330
18
100
AcDbEntity
  8
1
100
AcDbLine
 10
210.3449875068254
 20
-8.088705747197366
 30
0.0
 11
211.8449875068254
 21
-8.088705747197366
 31
0.0
  0
ARC
  5
12DE
330
18
100
AcDbEntity
  8
1
100
AcDbCircle
 10
207.8449875068254
 20
-4.088705747197366
 30
0.0
 40
2.0
100
AcDbArc
 50
270.0
 51
0.0
  0
LINE
  5
12DF
330
18
100
AcDbEntity
  8
1
100
AcDbLine
 10
221.8449875068254
 20
-4.088705747197366
 30
0.0
 11
221.8449875068254
 21
-2.588705747197366
 31
0.0
  0
LINE
  5
12E0
330
18
100
AcDbEntity
  8
1
100
AcDbLine
 10
219.3449875068254
 20
-4.088705747197366
 30
0.0
 11
219.3449875068254
 21
-2.588705747197366
 31
0.0
  0
LINE
  5
12E1
330
18
100
AcDbEntity
  8
1
100
AcDbLine
 10
219.8449875068254
 20
-8.088705747197366
 30
0.0
 11
221.3449875068254
 21
-8.088705747197366
 31
0.0
  0
ARC
  5
12E2
330
18
100
AcDbEntity
  8
1
100
AcDbCircle
 10
223.8449875068254
 20
-4.088705747197366
 30
0.0
 40
2.0
100
AcDbArc
 50
180.0
 51
270.0
  0
ARC
  5
12E3
330
18
100
AcDbEntity
  8
1
100
AcDbCircle
 10
217.3449875068254
 20
-4.088705747197366
 30
0.0
 40
2.0
100
AcDbArc
 50
270.0
 51
0.0
  0
LINE
  5
12E4
330
18
100
AcDbEntity
  8
1
100
AcDbLine
 10
211.8449875068254
 20
-0.0887057471973663
 30
0.0
 11
219.8449875068254
 21
-0.0887057471973663
 31
0.0
  0
LINE
  5
12E5
330
18
100
AcDbEntity
  8
1
100
AcDbLine
 10
211.8449875068254
 20
0.4112942528026338
 30
0.0
 11
219.8449875068254
 21
0.4112942528026338
 31
0.0
  0
LINE
  5
12E6
330
18
100
AcDbEntity
  8
1
100
AcDbLine
 10
211.8449875068254
 20
5.911294252802633
 30
0.0
 11
219.8449875068254
 21
5.911294252802633
 31
0.0
  0
LINE
  5
12E7
330
18
100
AcDbEntity
  8
1
100
AcDbLine
 10
211.8449875068254
 20
-1.088705747197366
 30
0.0
 11
219.8449875068254
 21
-1.088705747197366
 31
0.0
  0
LINE
  5
12E8
330
18
100
AcDbEntity
  8
1
100
AcDbLine
 10
209.3449875068254
 20
-1.088705747197366
 30
0.0
 11
209.3449875068254
 21
-0.0887057471973663
 31
0.0
  0
LINE
  5
12E9
330
18
100
AcDbEntity
  8
1
100
AcDbLine
 10
212.8449875068254
 20
-1.088705747197366
 30
0.0
 11
212.8449875068254
 21
-0.0887057471973663
 31
0.0
  0
LINE
  5
12EA
330
18
100
AcDbEntity
  8
1
100
AcDbLine
 10
218.8449875068254
 20
-1.088705747197366
 30
0.0
 11
218.8449875068254
 21
-0.0887057471973663
 31
0.0
  0
LINE
  5
12EB
330
18
100
AcDbEntity
  8
1
100
AcDbLine
 10
222.3449875068254
 20
-1.088705747197366
 30
0.0
 11
222.3449875068254
 21
-0.0887057471973663
 31
0.0
  0
LINE
  5
12EC
330
18
100
AcDbEntity
  8
1
100
AcDbLine
 10
240.3449875068254
 20
-0.0887057471973663
 30
0.0
 11
248.3449875068254
 21
-0.0887057471973663
 31
0.0
  0
LINE
  5
12ED
330
18
100
AcDbEntity
  8
1
100
AcDbLine
 10
240.3449875068254
 20
0.4112942528026338
 30
0.0
 11
248.3449875068254
 21
0.4112942528026338
 31
0.0
  0
LINE
  5
12EE
330
18
100
AcDbEntity
  8
1
100
AcDbLine
 10
240.3449875068254
 20
5.911294252802633
 30
0.0
 11
248.3449875068254
 21
5.911294252802633
 31
0.0
  0
LINE
  5
12EF
330
18
100
AcDbEntity
  8
1
100
AcDbLine
 10
242.8449875068254
 20
-6.088705747197366
 30
0.0
 11
245.8449875068254
 21
-6.088705747197366
 31
0.0
  0
ARC
  5
12F0
330
18
100
AcDbEntity
  8
1
100
AcDbCircle
 10
244.3449875068254
 20
-6.088705747197309
 30
0.0
 40
0.5
100
AcDbArc
 50
0.0
 51
180.0
  0
LINE
  5
12F1
330
18
100
AcDbEntity
  8
1
100
AcDbLine
 10
240.8449875068254
 20
-3.088705747197366
 30
0.0
 11
247.8449875068254
 21
-3.088705747197366
 31
0.0
  0
LINE
  5
12F2
330
18
100
AcDbEntity
  8
1
100
AcDbLine
 10
240.3449875068254
 20
-1.088705747197366
 30
0.0
 11
248.3449875068254
 21
-1.088705747197366
 31
0.0
  0
LINE
  5
12F3
330
18
100
AcDbEntity
  8
1
100
AcDbLine
 10
240.3449875068254
 20
-2.588705747197366
 30
0.0
 11
248.3449875068254
 21
-2.588705747197366
 31
0.0
  0
LINE
  5
12F4
330
18
100
AcDbEntity
  8
1
100
AcDbLine
 10
229.3449875068254
 20
-8.088705747197366
 30
0.0
 11
229.3449875068254
 21
5.911294252802633
 31
0.0
  0
LINE
  5
12F5
330
18
100
AcDbEntity
  8
1
100
AcDbLine
 10
230.8449875068254
 20
-8.088705747197366
 30
0.0
 11
230.8449875068254
 21
5.911294252802633
 31
0.0
  0
LINE
  5
12F6
330
18
100
AcDbEntity
  8
1
100
AcDbLine
 10
238.8449875068254
 20
-8.088705747197366
 30
0.0
 11
238.8449875068254
 21
5.911294252802633
 31
0.0
  0
LINE
  5
12F7
330
18
100
AcDbEntity
  8
1
100
AcDbLine
 10
240.3449875068254
 20
-8.088705747197366
 30
0.0
 11
240.3449875068254
 21
5.911294252802633
 31
0.0
  0
LINE
  5
12F8
330
18
100
AcDbEntity
  8
1
100
AcDbLine
 10
233.3449875068254
 20
-6.088705747197366
 30
0.0
 11
236.3449875068254
 21
-6.088705747197366
 31
0.0
  0
ARC
  5
12F9
330
18
100
AcDbEntity
  8
1
100
AcDbCircle
 10
234.8449875068254
 20
-6.088705747197309
 30
0.0
 40
0.5
100
AcDbArc
 50
0.0
 51
180.0
  0
LINE
  5
12FA
330
18
100
AcDbEntity
  8
1
100
AcDbLine
 10
231.3449875068254
 20
-3.088705747197366
 30
0.0
 11
238.3449875068254
 21
-3.088705747197366
 31
0.0
  0
LINE
  5
12FB
330
18
100
AcDbEntity
  8
1
100
AcDbLine
 10
230.8449875068254
 20
-2.588705747197366
 30
0.0
 11
238.8449875068254
 21
-2.588705747197366
 31
0.0
  0
ARC
  5
12FC
330
18
100
AcDbEntity
  8
1
100
AcDbCircle
 10
233.3449875068254
 20
-4.088705747197309
 30
0.0
 40
2.0
100
AcDbArc
 50
180.0
 51
270.0
  0
LINE
  5
12FD
330
18
100
AcDbEntity
  8
1
100
AcDbLine
 10
228.8449875068254
 20
-4.088705747197366
 30
0.0
 11
228.8449875068254
 21
-2.588705747197366
 31
0.0
  0
LINE
  5
12FE
330
18
100
AcDbEntity
  8
1
100
AcDbLine
 10
231.3449875068254
 20
-4.088705747197366
 30
0.0
 11
231.3449875068254
 21
-2.588705747197366
 31
0.0
  0
LINE
  5
12FF
330
18
100
AcDbEntity
  8
1
100
AcDbLine
 10
229.3449875068254
 20
-8.088705747197366
 30
0.0
 11
230.8449875068254
 21
-8.088705747197366
 31
0.0
  0
ARC
  5
1300
330
18
100
AcDbEntity
  8
1
100
AcDbCircle
 10
226.8449875068254
 20
-4.088705747197366
 30
0.0
 40
2.0
100
AcDbArc
 50
270.0
 51
0.0
  0
LINE
  5
1301
330
18
100
AcDbEntity
  8
1
100
AcDbLine
 10
238.3449875068254
 20
-4.088705747197366
 30
0.0
 11
238.3449875068254
 21
-2.588705747197366
 31
0.0
  0
LINE
  5
1302
330
18
100
AcDbEntity
  8
1
100
AcDbLine
 10
240.8449875068254
 20
-4.088705747197366
 30
0.0
 11
240.8449875068254
 21
-2.588705747197366
 31
0.0
  0
ARC
  5
1303
330
18
100
AcDbEntity
  8
1
100
AcDbCircle
 10
242.8449875068254
 20
-4.088705747197309
 30
0.0
 40
2.0
100
AcDbArc
 50
180.0
 51
270.0
  0
LINE
  5
1304
330
18
100
AcDbEntity
  8
1
100
AcDbLine
 10
238.8449875068254
 20
-8.088705747197366
 30
0.0
 11
240.3449875068254
 21
-8.088705747197366
 31
0.0
  0
ARC
  5
1305
330
18
100
AcDbEntity
  8
1
100
AcDbCircle
 10
236.3449875068254
 20
-4.088705747197309
 30
0.0
 40
2.0
100
AcDbArc
 50
270.0
 51
0.0
  0
LINE
  5
1306
330
18
100
AcDbEntity
  8
1
100
AcDbLine
 10
230.8449875068254
 20
-0.0887057471973663
 30
0.0
 11
238.8449875068254
 21
-0.0887057471973663
 31
0.0
  0
LINE
  5
1307
330
18
100
AcDbEntity
  8
1
100
AcDbLine
 10
230.8449875068254
 20
0.4112942528026338
 30
0.0
 11
238.8449875068254
 21
0.4112942528026338
 31
0.0
  0
LINE
  5
1308
330
18
100
AcDbEntity
  8
1
100
AcDbLine
 10
230.8449875068254
 20
5.911294252802633
 30
0.0
 11
238.8449875068254
 21
5.911294252802633
 31
0.0
  0
LINE
  5
1309
330
18
100
AcDbEntity
  8
1
100
AcDbLine
 10
230.8449875068254
 20
-1.088705747197366
 30
0.0
 11
238.8449875068254
 21
-1.088705747197366
 31
0.0
  0
LINE
  5
130A
330
18
100
AcDbEntity
  8
1
100
AcDbLine
 10
231.8449875068254
 20
-1.088705747197366
 30
0.0
 11
231.8449875068254
 21
-0.0887057471973663
 31
0.0
  0
LINE
  5
130B
330
18
100
AcDbEntity
  8
1
100
AcDbLine
 10
228.3449875068254
 20
-1.088705747197366
 30
0.0
 11
228.3449875068254
 21
-0.0887057471973663
 31
0.0
  0
LINE
  5
130C
330
18
100
AcDbEntity
  8
1
100
AcDbLine
 10
237.8449875068254
 20
-1.088705747197366
 30
0.0
 11
237.8449875068254
 21
-0.0887057471973663
 31
0.0
  0
LINE
  5
130D
330
18
100
AcDbEntity
  8
1
100
AcDbLine
 10
241.3449875068254
 20
-1.088705747197366
 30
0.0
 11
241.3449875068254
 21
-0.0887057471973663
 31
0.0
  0
LINE
  5
130E
330
18
100
AcDbEntity
  8
1
100
AcDbLine
 10
248.3449875068254
 20
-8.088705747197366
 30
0.0
 11
248.3449875068254
 21
5.911294252802633
 31
0.0
  0
LINE
  5
130F
330
18
100
AcDbEntity
  8
1
100
AcDbLine
 10
249.8449875068254
 20
-8.088705747197366
 30
0.0
 11
249.8449875068254
 21
5.911294252802633
 31
0.0
  0
LINE
  5
1310
330
18
100
AcDbEntity
  8
1
100
AcDbLine
 10
259.3449875068254
 20
-8.088705747197366
 30
0.0
 11
259.3449875068254
 21
5.911294252802633
 31
0.0
  0
LINE
  5
1311
330
18
100
AcDbEntity
  8
1
100
AcDbLine
 10
257.8449875068254
 20
-8.088705747197366
 30
0.0
 11
257.8449875068254
 21
5.911294252802633
 31
0.0
  0
LINE
  5
1312
330
18
100
AcDbEntity
  8
1
100
AcDbLine
 10
252.3449875068254
 20
-6.088705747197366
 30
0.0
 11
255.3449875068254
 21
-6.088705747197366
 31
0.0
  0
ARC
  5
1313
330
18
100
AcDbEntity
  8
1
100
AcDbCircle
 10
253.8449875068254
 20
-6.088705747197309
 30
0.0
 40
0.5
100
AcDbArc
 50
0.0
 51
180.0
  0
LINE
  5
1314
330
18
100
AcDbEntity
  8
1
100
AcDbLine
 10
250.3449875068254
 20
-3.088705747197366
 30
0.0
 11
257.3449875068254
 21
-3.088705747197366
 31
0.0
  0
LINE
  5
1315
330
18
100
AcDbEntity
  8
1
100
AcDbLine
 10
249.8449875068254
 20
-2.588705747197366
 30
0.0
 11
257.8449875068254
 21
-2.588705747197366
 31
0.0
  0
LINE
  5
1316
330
18
100
AcDbEntity
  8
1
100
AcDbLine
 10
250.3449875068254
 20
-4.088705747197366
 30
0.0
 11
250.3449875068254
 21
-2.588705747197366
 31
0.0
  0
LINE
  5
1317
330
18
100
AcDbEntity
  8
1
100
AcDbLine
 10
247.8449875068254
 20
-4.088705747197366
 30
0.0
 11
247.8449875068254
 21
-2.588705747197366
 31
0.0
  0
ARC
  5
1318
330
18
100
AcDbEntity
  8
1
100
AcDbCircle
 10
252.3449875068254
 20
-4.088705747197309
 30
0.0
 40
2.0
100
AcDbArc
 50
180.0
 51
270.0
  0
LINE
  5
1319
330
18
100
AcDbEntity
  8
1
100
AcDbLine
 10
248.3449875068254
 20
-8.088705747197366
 30
0.0
 11
249.8449875068254
 21
-8.088705747197366
 31
0.0
  0
ARC
  5
131A
330
18
100
AcDbEntity
  8
1
100
AcDbCircle
 10
245.8449875068254
 20
-4.088705747197309
 30
0.0
 40
2.0
100
AcDbArc
 50
270.0
 51
0.0
  0
LINE
  5
131B
330
18
100
AcDbEntity
  8
1
100
AcDbLine
 10
259.8449875068254
 20
-4.088705747197366
 30
0.0
 11
259.8449875068254
 21
-2.588705747197366
 31
0.0
  0
LINE
  5
131C
330
18
100
AcDbEntity
  8
1
100
AcDbLine
 10
257.3449875068254
 20
-4.088705747197366
 30
0.0
 11
257.3449875068254
 21
-2.588705747197366
 31
0.0
  0
LINE
  5
131D
330
18
100
AcDbEntity
  8
1
100
AcDbLine
 10
257.8449875068254
 20
-8.088705747197366
 30
0.0
 11
259.3449875068254
 21
-8.088705747197366
 31
0.0
  0
ARC
  5
131E
330
18
100
AcDbEntity
  8
1
100
AcDbCircle
 10
261.8449875068254
 20
-4.088705747197309
 30
0.0
 40
2.0
100
AcDbArc
 50
180.0
 51
270.0
  0
ARC
  5
131F
330
18
100
AcDbEntity
  8
1
100
AcDbCircle
 10
255.3449875068254
 20
-4.088705747197309
 30
0.0
 40
2.0
100
AcDbArc
 50
270.0
 51
0.0
  0
LINE
  5
1320
330
18
100
AcDbEntity
  8
1
100
AcDbLine
 10
249.8449875068254
 20
-0.0887057471973663
 30
0.0
 11
257.8449875068254
 21
-0.0887057471973663
 31
0.0
  0
LINE
  5
1321
330
18
100
AcDbEntity
  8
1
100
AcDbLine
 10
249.8449875068254
 20
0.4112942528026338
 30
0.0
 11
257.8449875068254
 21
0.4112942528026338
 31
0.0
  0
LINE
  5
1322
330
18
100
AcDbEntity
  8
1
100
AcDbLine
 10
249.8449875068254
 20
5.911294252802633
 30
0.0
 11
257.8449875068254
 21
5.911294252802633
 31
0.0
  0
LINE
  5
1323
330
18
100
AcDbEntity
  8
1
100
AcDbLine
 10
249.8449875068254
 20
-1.088705747197366
 30
0.0
 11
257.8449875068254
 21
-1.088705747197366
 31
0.0
  0
LINE
  5
1324
330
18
100
AcDbEntity
  8
1
100
AcDbLine
 10
250.8449875068254
 20
-1.088705747197366
 30
0.0
 11
250.8449875068254
 21
-0.0887057471973663
 31
0.0
  0
LINE
  5
1325
330
18
100
AcDbEntity
  8
1
100
AcDbLine
 10
247.3449875068254
 20
-1.088705747197366
 30
0.0
 11
247.3449875068254
 21
-0.0887057471973663
 31
0.0
  0
LINE
  5
1326
330
18
100
AcDbEntity
  8
1
100
AcDbLine
 10
260.3449875068254
 20
-1.088705747197366
 30
0.0
 11
260.3449875068254
 21
-0.0887057471973663
 31
0.0
  0
LINE
  5
1327
330
18
100
AcDbEntity
  8
1
100
AcDbLine
 10
256.8449875068254
 20
-1.088705747197366
 30
0.0
 11
256.8449875068254
 21
-0.0887057471973663
 31
0.0
  0
LINE
  5
1328
330
18
100
AcDbEntity
  8
1
100
AcDbLine
 10
278.3449875068254
 20
-0.0887057471973094
 30
0.0
 11
286.3449875068254
 21
-0.0887057471973094
 31
0.0
  0
LINE
  5
1329
330
18
100
AcDbEntity
  8
1
100
AcDbLine
 10
278.3449875068254
 20
0.4112942528026906
 30
0.0
 11
286.3449875068254
 21
0.4112942528026906
 31
0.0
  0
LINE
  5
132A
330
18
100
AcDbEntity
  8
1
100
AcDbLine
 10
278.3449875068254
 20
5.911294252802633
 30
0.0
 11
286.3449875068254
 21
5.91129425280269
 31
0.0
  0
ARC
  5
132B
330
18
100
AcDbEntity
  8
1
  6
ByBlock
100
AcDbCircle
 10
281.2449875068253
 20
-2.588705747197366
 30
0.0
 40
1.5
100
AcDbArc
 50
180.0
 51
270.0
  0
LINE
  5
132C
330
18
100
AcDbEntity
  8
1
100
AcDbLine
 10
278.3449875068254
 20
-1.088705747197309
 30
0.0
 11
286.3449875068254
 21
-1.088705747197309
 31
0.0
  0
LINE
  5
132D
330
18
100
AcDbEntity
  8
1
  6
ByBlock
100
AcDbLine
 10
280.2449875068252
 20
-1.088705747197309
 30
0.0
 11
284.4449875068253
 21
-1.088705747197309
 31
0.0
  0
LINE
  5
132E
330
18
100
AcDbEntity
  8
1
  6
ByBlock
100
AcDbLine
 10
279.7449875068252
 20
-1.888705747197263
 30
0.0
 11
284.9449875068255
 21
-1.888705747197263
 31
0.0
  0
LINE
  5
132F
330
18
100
AcDbEntity
  8
1
  6
ByBlock
100
AcDbLine
 10
279.7449875068252
 20
-1.588705747197309
 30
0.0
 11
279.7449875068252
 21
-2.588705747197309
 31
0.0
  0
LINE
  5
1330
330
18
100
AcDbEntity
  8
1
100
AcDbLine
 10
276.8449875068254
 20
-8.088705747197309
 30
0.0
 11
276.8449875068254
 21
5.911294252802633
 31
0.0
  0
LINE
  5
1331
330
18
100
AcDbEntity
  8
1
100
AcDbLine
 10
267.3449875068254
 20
-8.088705747197366
 30
0.0
 11
267.3449875068254
 21
5.911294252802633
 31
0.0
  0
LINE
  5
1332
330
18
100
AcDbEntity
  8
1
100
AcDbLine
 10
268.8449875068254
 20
-8.088705747197366
 30
0.0
 11
268.8449875068254
 21
5.911294252802633
 31
0.0
  0
LINE
  5
1333
330
18
100
AcDbEntity
  8
1
100
AcDbLine
 10
278.3449875068254
 20
-8.088705747197309
 30
0.0
 11
278.3449875068254
 21
5.911294252802633
 31
0.0
  0
LINE
  5
1334
330
18
100
AcDbEntity
  8
1
100
AcDbLine
 10
271.3449875068254
 20
-6.088705747197366
 30
0.0
 11
274.3449875068254
 21
-6.088705747197366
 31
0.0
  0
LINE
  5
1335
330
18
100
AcDbEntity
  8
1
100
AcDbLine
 10
269.3449875068254
 20
-3.088705747197366
 30
0.0
 11
276.3449875068254
 21
-3.088705747197309
 31
0.0
  0
LINE
  5
1336
330
18
100
AcDbEntity
  8
1
100
AcDbLine
 10
268.8449875068254
 20
-2.588705747197366
 30
0.0
 11
276.8449875068254
 21
-2.588705747197309
 31
0.0
  0
LINE
  5
1337
330
18
100
AcDbEntity
  8
1
100
AcDbLine
 10
269.3449875068254
 20
-4.088705747197366
 30
0.0
 11
269.3449875068254
 21
-2.588705747197366
 31
0.0
  0
LINE
  5
1338
330
18
100
AcDbEntity
  8
1
100
AcDbLine
 10
266.8449875068254
 20
-4.088705747197366
 30
0.0
 11
266.8449875068254
 21
-2.588705747197366
 31
0.0
  0
ARC
  5
1339
330
18
100
AcDbEntity
  8
1
100
AcDbCircle
 10
264.8449875068254
 20
-4.088705747197309
 30
0.0
 40
2.0
100
AcDbArc
 50
270.0
 51
0.0
  0
ARC
  5
133A
330
18
100
AcDbEntity
  8
1
100
AcDbCircle
 10
271.3449875068254
 20
-4.088705747197309
 30
0.0
 40
2.0
100
AcDbArc
 50
180.0
 51
270.0
  0
LINE
  5
133B
330
18
100
AcDbEntity
  8
1
100
AcDbLine
 10
267.3449875068254
 20
-8.088705747197366
 30
0.0
 11
268.8449875068254
 21
-8.088705747197366
 31
0.0
  0
ARC
  5
133C
330
18
100
AcDbEntity
  8
1
100
AcDbCircle
 10
263.3449875068254
 20
-6.088705747197309
 30
0.0
 40
0.5
100
AcDbArc
 50
0.0
 51
180.0
  0
LINE
  5
133D
330
18
100
AcDbEntity
  8
1
100
AcDbLine
 10
276.8449875068254
 20
-8.088705747197309
 30
0.0
 11
278.3449875068254
 21
-8.088705747197309
 31
0.0
  0
LINE
  5
133E
330
18
100
AcDbEntity
  8
1
100
AcDbLine
 10
276.3449875068254
 20
-4.088705747197309
 30
0.0
 11
276.3449875068254
 21
-2.588705747197309
 31
0.0
  0
ARC
  5
133F
330
18
100
AcDbEntity
  8
1
100
AcDbCircle
 10
274.3449875068254
 20
-4.088705747197309
 30
0.0
 40
2.0
100
AcDbArc
 50
270.0
 51
0.0
  0
ARC
  5
1340
330
18
100
AcDbEntity
  8
1
100
AcDbCircle
 10
272.8449875068254
 20
-6.088705747197309
 30
0.0
 40
0.5
100
AcDbArc
 50
0.0
 51
180.0
  0
LINE
  5
1341
330
18
100
AcDbEntity
  8
1
100
AcDbLine
 10
268.8449875068254
 20
0.4112942528026338
 30
0.0
 11
276.8449875068254
 21
0.4112942528026906
 31
0.0
  0
LINE
  5
1342
330
18
100
AcDbEntity
  8
1
100
AcDbLine
 10
268.8449875068254
 20
-0.0887057471973663
 30
0.0
 11
276.8449875068254
 21
-0.0887057471973094
 31
0.0
  0
LINE
  5
1343
330
18
100
AcDbEntity
  8
1
100
AcDbLine
 10
268.8449875068254
 20
5.911294252802633
 30
0.0
 11
276.8449875068254
 21
5.911294252802633
 31
0.0
  0
LINE
  5
1344
330
18
100
AcDbEntity
  8
1
100
AcDbLine
 10
268.8449875068254
 20
-1.088705747197366
 30
0.0
 11
276.8449875068254
 21
-1.088705747197309
 31
0.0
  0
LINE
  5
1345
330
18
100
AcDbEntity
  8
1
100
AcDbLine
 10
269.8449875068254
 20
-1.088705747197366
 30
0.0
 11
269.8449875068254
 21
-0.0887057471973663
 31
0.0
  0
LINE
  5
1346
330
18
100
AcDbEntity
  8
1
100
AcDbLine
 10
267.3449875068254
 20
-1.088705747197366
 30
0.0
 11
267.3449875068254
 21
5.911294252802633
 31
0.0
  0
LINE
  5
1347
330
18
100
AcDbEntity
  8
1
100
AcDbLine
 10
266.3449875068254
 20
-1.088705747197366
 30
0.0
 11
266.3449875068254
 21
-0.0887057471973663
 31
0.0
  0
LINE
  5
1348
330
18
100
AcDbEntity
  8
1
100
AcDbLine
 10
275.8449875068254
 20
-1.088705747197309
 30
0.0
 11
275.8449875068254
 21
-0.0887057471973094
 31
0.0
  0
ARC
  5
1349
330
18
100
AcDbEntity
  8
1
  6
ByBlock
100
AcDbCircle
 10
280.2449875068252
 20
-1.588705747197366
 30
0.0
 40
0.5
100
AcDbArc
 50
90.0
 51
180.0
  0
LINE
  5
134A
330
18
100
AcDbEntity
  8
1
100
AcDbLine
 10
279.3449875068254
 20
-1.088705747197309
 30
0.0
 11
279.3449875068254
 21
-0.0887057471973094
 31
0.0
  0
LINE
  5
134B
330
18
100
AcDbEntity
  8
1
  6
ByBlock
100
AcDbLine
 10
284.9449875068253
 20
-1.588705747197309
 30
0.0
 11
284.9449875068253
 21
-2.588705747197309
 31
0.0
  0
ARC
  5
134C
330
18
100
AcDbEntity
  8
1
  6
ByBlock
100
AcDbCircle
 10
283.444987506825
 20
-2.588705747197366
 30
0.0
 40
1.5
100
AcDbArc
 50
270.0
 51
0.0
  0
LINE
  5
134D
330
18
100
AcDbEntity
  8
1
  6
ByBlock
100
AcDbLine
 10
281.2449875068253
 20
-4.088705747197309
 30
0.0
 11
283.4449875068253
 21
-4.088705747197309
 31
0.0
  0
LINE
  5
134E
330
18
100
AcDbEntity
  8
1
  6
ByBlock
100
AcDbLine
 10
282.7449875068253
 20
-1.088705747197309
 30
0.0
 11
281.9449875068253
 21
-1.888705747197263
 31
0.0
  0
LINE
  5
134F
330
18
100
AcDbEntity
  8
1
100
AcDbLine
 10
286.3449875068254
 20
-1.088705747197309
 30
0.0
 11
286.3449875068254
 21
6.111294252802622
 31
0.0
  0
ARC
  5
1350
330
18
100
AcDbEntity
  8
1
  6
ByBlock
100
AcDbCircle
 10
284.4449875068251
 20
-1.588705747197366
 30
0.0
 40
0.5
100
AcDbArc
 50
0.0
 51
90.0
  0
LINE
  5
1351
330
18
100
AcDbEntity
  8
1
100
AcDbLine
 10
285.3449875068254
 20
-1.088705747197309
 30
0.0
 11
285.3449875068254
 21
-0.0887057471973094
 31
0.0
  0
LINE
  5
1352
330
18
100
AcDbEntity
  8
1
  6
ByBlock
100
AcDbLine
 10
280.8449875068254
 20
14.41129425280269
 30
0.0
 11
281.3449875068254
 21
14.41129425280269
 31
0.0
  0
LINE
  5
1353
330
18
100
AcDbEntity
  8
1
  6
ByBlock
100
AcDbLine
 10
281.3449875068254
 20
15.41129425280269
 30
0.0
 11
280.8449875068254
 21
15.41129425280269
 31
0.0
  0
CIRCLE
  5
1354
330
18
100
AcDbEntity
  8
1
  6
ByBlock
100
AcDbCircle
 10
282.3449875068254
 20
14.91129425280269
 30
0.0
 40
2.799999999999999
  0
LINE
  5
1355
330
18
100
AcDbEntity
  8
1
  6
ByBlock
100
AcDbLine
 10
280.8449875068254
 20
15.41129425280269
 30
0.0
 11
280.8449875068254
 21
14.41129425280269
 31
0.0
  0
LINE
  5
1356
330
18
100
AcDbEntity
  8
1
  6
ByBlock
100
AcDbLine
 10
283.8449875068254
 20
15.41129425280269
 30
0.0
 11
283.3449875068254
 21
15.41129425280269
 31
0.0
  0
LINE
  5
1357
330
18
100
AcDbEntity
  8
1
  6
ByBlock
100
AcDbLine
 10
283.3449875068254
 20
14.41129425280269
 30
0.0
 11
283.8449875068254
 21
14.41129425280269
 31
0.0
  0
LINE
  5
1358
330
18
100
AcDbEntity
  8
1
  6
ByBlock
100
AcDbLine
 10
283.8449875068254
 20
14.41129425280269
 30
0.0
 11
283.8449875068254
 21
15.41129425280269
 31
0.0
  0
LINE
  5
1359
330
18
100
AcDbEntity
  8
1
  6
ByBlock
100
AcDbLine
 10
281.8449875068253
 20
16.41129425280269
 30
0.0
 11
281.8449875068253
 21
15.91129425280269
 31
0.0
  0
LINE
  5
135A
330
18
100
AcDbEntity
  8
1
  6
ByBlock
100
AcDbLine
 10
282.8449875068254
 20
15.91129425280269
 30
0.0
 11
282.8449875068254
 21
16.41129425280269
 31
0.0
  0
LINE
  5
135B
330
18
100
AcDbEntity
  8
1
  6
ByBlock
100
AcDbLine
 10
281.8449875068253
 20
13.91129425280269
 30
0.0
 11
281.8449875068253
 21
13.41129425280269
 31
0.0
  0
LINE
  5
135C
330
18
100
AcDbEntity
  8
1
  6
ByBlock
100
AcDbLine
 10
282.8449875068254
 20
13.41129425280269
 30
0.0
 11
282.8449875068254
 21
13.91129425280269
 31
0.0
  0
LINE
  5
135D
330
18
100
AcDbEntity
  8
1
  6
ByBlock
100
AcDbLine
 10
281.8449875068253
 20
13.41129425280269
 30
0.0
 11
282.8449875068254
 21
13.41129425280269
 31
0.0
  0
ARC
  5
135E
330
18
100
AcDbEntity
  8
1
  6
ByBlock
100
AcDbCircle
 10
281.3449875068254
 20
13.91129425280269
 30
0.0
 40
0.5
100
AcDbArc
 50
0.0
 51
90.0
  0
ARC
  5
135F
330
18
100
AcDbEntity
  8
1
  6
ByBlock
100
AcDbCircle
 10
281.3449875068254
 20
15.91129425280269
 30
0.0
 40
0.5
100
AcDbArc
 50
270.0
 51
0.0
  0
LINE
  5
1360
330
18
100
AcDbEntity
  8
1
  6
ByBlock
100
AcDbLine
 10
282.8449875068254
 20
16.41129425280269
 30
0.0
 11
281.8449875068253
 21
16.41129425280269
 31
0.0
  0
ARC
  5
1361
330
18
100
AcDbEntity
  8
1
  6
ByBlock
100
AcDbCircle
 10
283.3449875068254
 20
15.91129425280269
 30
0.0
 40
0.5
100
AcDbArc
 50
180.0
 51
270.0
  0
ARC
  5
1362
330
18
100
AcDbEntity
  8
1
  6
ByBlock
100
AcDbCircle
 10
283.3449875068254
 20
13.91129425280269
 30
0.0
 40
0.5
100
AcDbArc
 50
90.0
 51
180.0
  0
DIMENSION
  5
1363
330
18
100
AcDbEntity
  8
2
100
AcDbDimension
  2
*D7
 10
302.0949875068254
 20
140.9112945665241
 30
0.0
 11
230.0949875068254
 21
140.9112945665241
 31
0.0
 70
   160
 71
     5
 42
144.0
  3
STANDARD
100
AcDbAlignedDimension
 13
158.0949875068254
 23
151.2190091957526
 33
0.0
 14
302.0949875068254
 24
151.2190091957526
 34
0.0
100
AcDbRotatedDimension
1001
ACAD
1000
DSTYLE
1002
{
1070
    40
1040
1.0
1002
}
  0
LINE
  5
1364
330
18
100
AcDbEntity
  8
1
100
AcDbLine
 10
175.8512588704218
 20
210.2190091957525
 30
0.0
 11
284.0191896300705
 21
210.2190091957526
 31
0.0
  0
TEXT
  5
1365
330
18
100
AcDbEntity
  8
1
100
AcDbText
 10
252.9442143109491
 20
177.2769988864742
 30
0.0
 40
2.5
  1
DOWN
  7
HG丸ｺﾞｼｯｸM-PRO
 72
     4
 11
258.5949875068254
 21
178.4690091957526
 31
0.0
100
AcDbText
  0
LWPOLYLINE
  5
1366
330
18
100
AcDbEntity
  8
1
100
AcDbPolyline
 90
        8
 70
     1
 43
0.0
 10
252.0949875068254
 20
167.7190091957526
 10
265.0949875068254
 20
167.7190091957526
 42
0.4142135623730953
 10
266.0949875068254
 20
168.7190091957526
 10
266.0949875068254
 20
174.7190091957526
 42
0.4142135623730951
 10
265.0949875068254
 20
175.7190091957526
 10
252.0949875068254
 20
175.7190091957526
 42
0.4142135623730951
 10
251.0949875068254
 20
174.7190091957526
 10
251.0949875068254
 20
168.7190091957526
 42
0.4142135623730951
  0
LINE
  5
1367
330
18
100
AcDbEntity
  8
1
100
AcDbLine
 10
233.1707853835805
 20
165.2190091957525
 30
0.0
 11
284.0191896300705
 21
165.2190091957526
 31
0.0
  0
TEXT
  5
1368
330
18
100
AcDbEntity
  8
1
100
AcDbText
 10
258.9764308057945
 20
192.0862772369897
 30
0.0
 40
3.5
  1
除霜
  7
HG丸ｺﾞｼｯｸM-PRO
 72
     4
 11
263.5949875068254
 21
193.7190091957526
 31
0.0
100
AcDbText
  0
LINE
  5
1369
330
18
100
AcDbEntity
  8
1
370
     9
100
AcDbLine
 10
229.1626908029682
 20
177.2190091957525
 30
0.0
 11
288.0272842106826
 21
177.2190091957526
 31
0.0
  0
LINE
  5
136A
330
18
100
AcDbEntity
  8
1
370
     9
100
AcDbLine
 10
228.2426908029681
 20
179.7190091957526
 30
0.0
 11
288.9472842106826
 21
179.7190091957526
 31
0.0
  0
LINE
  5
136B
330
18
100
AcDbEntity
  8
1
370
     9
100
AcDbLine
 10
229.1626908029682
 20
177.2190091957525
 30
0.0
 11
288.0272842106826
 21
177.2190091957526
 31
0.0
  0
LINE
  5
136C
330
18
100
AcDbEntity
  8
1
370
     9
100
AcDbLine
 10
228.274690802968
 20
179.4390091957525
 30
0.0
 11
288.9152842106827
 21
179.4390091957525
 31
0.0
  0
LINE
  5
136D
330
18
100
AcDbEntity
  8
1
370
     9
100
AcDbLine
 10
228.466690802968
 20
179.1590091957526
 30
0.0
 11
288.7232842106827
 21
179.1590091957526
 31
0.0
  0
LINE
  5
136E
330
18
100
AcDbEntity
  8
1
370
     9
100
AcDbLine
 10
228.4986908029682
 20
178.8790091957525
 30
0.0
 11
288.6912842106828
 21
178.8790091957525
 31
0.0
  0
LINE
  5
136F
330
18
100
AcDbEntity
  8
1
370
     9
100
AcDbLine
 10
228.6906908029679
 20
178.5990091957526
 30
0.0
 11
288.4992842106828
 21
178.5990091957526
 31
0.0
  0
LINE
  5
1370
330
18
100
AcDbEntity
  8
1
370
     9
100
AcDbLine
 10
228.7226908029681
 20
178.3190091957526
 30
0.0
 11
288.4672842106827
 21
178.3190091957525
 31
0.0
  0
LINE
  5
1371
330
18
100
AcDbEntity
  8
1
370
     9
100
AcDbLine
 10
228.9146908029681
 20
178.0390091957526
 30
0.0
 11
288.2752842106826
 21
178.0390091957526
 31
0.0
  0
LINE
  5
1372
330
18
100
AcDbEntity
  8
1
370
     9
100
AcDbLine
 10
228.946690802968
 20
177.7590091957526
 30
0.0
 11
288.2432842106827
 21
177.7590091957526
 31
0.0
  0
LINE
  5
1373
330
18
100
AcDbEntity
  8
1
370
     9
100
AcDbLine
 10
229.138690802968
 20
177.4790091957526
 30
0.0
 11
288.0512842106827
 21
177.4790091957526
 31
0.0
  0
LWPOLYLINE
  5
1374
330
18
100
AcDbEntity
  8
1
100
AcDbPolyline
 90
        4
 70
     1
 43
0.0
 10
164.0949875068254
 20
157.0190091957526
 10
296.0949875068254
 20
157.0190091957526
 10
296.0949875068254
 20
217.4190091957526
 10
164.0949875068254
 20
217.4190091957526
  0
TEXT
  5
1375
330
18
100
AcDbEntity
  8
1
100
AcDbText
 10
258.9764308057945
 20
202.0231329070928
 30
0.0
 40
3.5
  1
冷却
  7
HG丸ｺﾞｼｯｸM-PRO
 72
     4
 11
263.5949875068254
 21
203.7190091957526
 31
0.0
100
AcDbText
  0
LINE
  5
1376
330
18
100
AcDbEntity
  8
1
100
AcDbLine
 10
300.0949875068254
 20
223.2190091957526
 30
0.0
 11
160.0949875068254
 21
223.2190091957526
 31
0.0
  0
LINE
  5
1377
330
18
100
AcDbEntity
  8
1
100
AcDbLine
 10
298.0949875068254
 20
220.2190091957526
 30
0.0
 11
162.0949875068254
 21
220.2190091957526
 31
0.0
  0
LINE
  5
1378
330
18
100
AcDbEntity
  8
1
100
AcDbLine
 10
295.8949875068253
 20
217.5190091957525
 30
0.0
 11
164.2949875068254
 21
217.5190091957525
 31
0.0
  0
LINE
  5
1379
330
18
100
AcDbEntity
  8
1
100
AcDbLine
 10
162.0949875068254
 20
154.2190091957526
 30
0.0
 11
298.0949875068254
 21
154.2190091957526
 31
0.0
  0
LINE
  5
137A
330
18
100
AcDbEntity
  8
1
100
AcDbLine
 10
164.2949875068254
 20
156.9190091957526
 30
0.0
 11
295.8949875068253
 21
156.9190091957526
 31
0.0
  0
LINE
  5
137B
330
18
100
AcDbEntity
  8
1
100
AcDbLine
 10
160.0949875068254
 20
151.2190091957526
 30
0.0
 11
300.0949875068254
 21
151.2190091957526
 31
0.0
  0
LINE
  5
137C
330
18
100
AcDbEntity
  8
1
100
AcDbLine
 10
299.0949875068254
 20
71.11129425280262
 30
0.0
 11
161.0949875068254
 21
71.11129425280262
 31
0.0
  0
LINE
  5
137D
330
18
100
AcDbEntity
  8
1
100
AcDbLine
 10
270.5949875068254
 20
46.11129425280262
 30
0.0
 11
261.5949875068254
 21
46.11129425280262
 31
0.0
  0
LINE
  5
137E
330
18
100
AcDbEntity
  8
1
100
AcDbLine
 10
302.0949875068254
 20
67.11129425280262
 30
0.0
 11
158.0949875068254
 21
67.11129425280262
 31
0.0
  0
LINE
  5
137F
330
18
100
AcDbEntity
  8
1
100
AcDbLine
 10
302.0949875068254
 20
68.11129425280262
 30
0.0
 11
158.0949875068254
 21
68.11129425280262
 31
0.0
  0
LINE
  5
1380
330
18
100
AcDbEntity
  8
1
100
AcDbLine
 10
180.5949875068254
 20
67.11129425280262
 30
0.0
 11
180.5949875068254
 21
57.11129425280262
 31
0.0
  0
LINE
  5
1381
330
18
100
AcDbEntity
  8
1
100
AcDbLine
 10
181.5949875068254
 20
66.61129425280262
 30
0.0
 11
181.5949875068254
 21
57.11129425280262
 31
0.0
  0
LINE
  5
1382
330
18
100
AcDbEntity
  8
1
100
AcDbLine
 10
188.5949875068254
 20
66.61129425280262
 30
0.0
 11
188.5949875068254
 21
57.11129425280262
 31
0.0
  0
LINE
  5
1383
330
18
100
AcDbEntity
  8
1
100
AcDbLine
 10
162.0949875068254
 20
67.11129425280262
 30
0.0
 11
162.0949875068254
 21
57.11129425280262
 31
0.0
  0
LINE
  5
1384
330
18
100
AcDbEntity
  8
1
100
AcDbLine
 10
180.5949875068254
 20
57.11129425280262
 30
0.0
 11
162.2949875068254
 21
57.11129425280262
 31
0.0
  0
LINE
  5
1385
330
18
100
AcDbEntity
  8
1
100
AcDbLine
 10
188.5949875068254
 20
57.11129425280262
 30
0.0
 11
181.5949875068254
 21
57.11129425280262
 31
0.0
  0
LINE
  5
1386
330
18
100
AcDbEntity
  8
1
100
AcDbLine
 10
158.0949875068254
 20
67.11129425280262
 30
0.0
 11
158.0949875068254
 21
68.11129425280262
 31
0.0
  0
LINE
  5
1387
330
18
100
AcDbEntity
  8
1
100
AcDbLine
 10
158.0949875068254
 20
68.11129425280262
 30
0.0
 11
161.0949875068254
 21
71.11129425280262
 31
0.0
  0
LINE
  5
1388
330
18
100
AcDbEntity
  8
1
100
AcDbLine
 10
188.5949875068254
 20
63.61129425280262
 30
0.0
 11
181.5949875068254
 21
63.61129425280262
 31
0.0
  0
LINE
  5
1389
330
18
100
AcDbEntity
  8
1
100
AcDbLine
 10
188.5949875068254
 20
62.61129425280262
 30
0.0
 11
181.5949875068254
 21
62.61129425280262
 31
0.0
  0
LINE
  5
138A
330
18
100
AcDbEntity
  8
1
100
AcDbLine
 10
188.5949875068254
 20
66.61129425280262
 30
0.0
 11
181.5949875068254
 21
66.61129425280262
 31
0.0
  0
LINE
  5
138B
330
18
100
AcDbEntity
  8
1
100
AcDbLine
 10
188.5949875068254
 20
65.61129425280262
 30
0.0
 11
181.5949875068254
 21
65.61129425280262
 31
0.0
  0
LINE
  5
138C
330
18
100
AcDbEntity
  8
1
100
AcDbLine
 10
188.5949875068254
 20
64.61129425280262
 30
0.0
 11
181.5949875068254
 21
64.61129425280262
 31
0.0
  0
LWPOLYLINE
  5
138D
330
18
100
AcDbEntity
  8
1
100
AcDbPolyline
 90
        2
 70
     0
 43
0.0
 10
199.0949875068254
 20
57.11129425280262
 10
261.0949875068254
 20
57.11129425280268
  0
LINE
  5
138E
330
18
100
AcDbEntity
  8
1
100
AcDbLine
 10
261.5949875068254
 20
57.11129425280268
 30
0.0
 11
198.5949875068254
 21
57.11129425280262
 31
0.0
  0
LINE
  5
138F
330
18
100
AcDbEntity
  8
1
100
AcDbLine
 10
189.5949875068254
 20
67.11129425280262
 30
0.0
 11
189.5949875068254
 21
46.11129425280262
 31
0.0
  0
LINE
  5
1390
330
18
100
AcDbEntity
  8
1
100
AcDbLine
 10
198.5949875068254
 20
57.11129425280262
 30
0.0
 11
198.5949875068254
 21
46.11129425280262
 31
0.0
  0
LINE
  5
1391
330
18
100
AcDbEntity
  8
1
100
AcDbLine
 10
198.5949875068254
 20
46.11129425280262
 30
0.0
 11
189.5949875068254
 21
46.11129425280262
 31
0.0
  0
ARC
  5
1392
330
18
100
AcDbEntity
  8
1
  6
ByBlock
100
AcDbCircle
 10
193.0949875068254
 20
51.11129425280262
 30
0.0
 40
0.5
100
AcDbArc
 50
270.0
 51
0.0
  0
ARC
  5
1393
330
18
100
AcDbEntity
  8
1
  6
ByBlock
100
AcDbCircle
 10
193.0949875068254
 20
49.11129425280262
 30
0.0
 40
0.5
100
AcDbArc
 50
0.0
 51
90.0
  0
LINE
  5
1394
330
18
100
AcDbEntity
  8
1
  6
ByBlock
100
AcDbLine
 10
193.5949875068254
 20
51.61129425280262
 30
0.0
 11
194.5949875068254
 21
51.61129425280262
 31
0.0
  0
LINE
  5
1395
330
18
100
AcDbEntity
  8
1
  6
ByBlock
100
AcDbLine
 10
195.5949875068254
 20
50.61129425280262
 30
0.0
 11
195.5949875068254
 21
49.61129425280262
 31
0.0
  0
LINE
  5
1396
330
18
100
AcDbEntity
  8
1
  6
ByBlock
100
AcDbLine
 10
194.5949875068254
 20
51.61129425280262
 30
0.0
 11
194.5949875068254
 21
51.11129425280262
 31
0.0
  0
LINE
  5
1397
330
18
100
AcDbEntity
  8
1
  6
ByBlock
100
AcDbLine
 10
195.0949875068254
 20
50.61129425280262
 30
0.0
 11
195.5949875068254
 21
50.61129425280262
 31
0.0
  0
ARC
  5
1398
330
18
100
AcDbEntity
  8
1
  6
ByBlock
100
AcDbCircle
 10
195.0949875068254
 20
51.11129425280262
 30
0.0
 40
0.5
100
AcDbArc
 50
180.0
 51
270.0
  0
LINE
  5
1399
330
18
100
AcDbEntity
  8
1
  6
ByBlock
100
AcDbLine
 10
195.5949875068254
 20
49.61129425280262
 30
0.0
 11
195.0949875068254
 21
49.61129425280262
 31
0.0
  0
LINE
  5
139A
330
18
100
AcDbEntity
  8
1
  6
ByBlock
100
AcDbLine
 10
193.5949875068254
 20
51.11129425280262
 30
0.0
 11
193.5949875068254
 21
51.61129425280262
 31
0.0
  0
LINE
  5
139B
330
18
100
AcDbEntity
  8
1
  6
ByBlock
100
AcDbLine
 10
194.5949875068254
 20
48.61129425280262
 30
0.0
 11
193.5949875068254
 21
48.61129425280262
 31
0.0
  0
LINE
  5
139C
330
18
100
AcDbEntity
  8
1
  6
ByBlock
100
AcDbLine
 10
194.5949875068254
 20
49.11129425280262
 30
0.0
 11
194.5949875068254
 21
48.61129425280262
 31
0.0
  0
LINE
  5
139D
330
18
100
AcDbEntity
  8
1
  6
ByBlock
100
AcDbLine
 10
193.5949875068254
 20
48.61129425280262
 30
0.0
 11
193.5949875068254
 21
49.11129425280262
 31
0.0
  0
ARC
  5
139E
330
18
100
AcDbEntity
  8
1
  6
ByBlock
100
AcDbCircle
 10
195.0949875068254
 20
49.11129425280262
 30
0.0
 40
0.5
100
AcDbArc
 50
90.0
 51
180.0
  0
LINE
  5
139F
330
18
100
AcDbEntity
  8
1
  6
ByBlock
100
AcDbLine
 10
192.5949875068254
 20
49.61129425280262
 30
0.0
 11
192.5949875068254
 21
50.61129425280262
 31
0.0
  0
LINE
  5
13A0
330
18
100
AcDbEntity
  8
1
  6
ByBlock
100
AcDbLine
 10
193.0949875068254
 20
49.61129425280262
 30
0.0
 11
192.5949875068254
 21
49.61129425280262
 31
0.0
  0
LINE
  5
13A1
330
18
100
AcDbEntity
  8
1
  6
ByBlock
100
AcDbLine
 10
192.5949875068254
 20
50.61129425280262
 30
0.0
 11
193.0949875068254
 21
50.61129425280262
 31
0.0
  0
CIRCLE
  5
13A2
330
18
100
AcDbEntity
  8
1
  6
ByBlock
100
AcDbCircle
 10
194.0949875068254
 20
50.11129425280262
 30
0.0
 40
2.799999999999999
  0
LINE
  5
13A3
330
18
100
AcDbEntity
  8
1
100
AcDbLine
 10
261.5949875068254
 20
57.11129425280262
 30
0.0
 11
261.5949875068254
 21
46.11129425280262
 31
0.0
  0
LINE
  5
13A4
330
18
100
AcDbEntity
  8
1
100
AcDbLine
 10
175.8512588704218
 20
179.7190091957526
 30
0.0
 11
225.9750430106019
 21
179.7190091957526
 31
0.0
  0
TEXT
  5
13A5
330
18
100
AcDbEntity
  8
1
100
AcDbText
 10
183.1578741047635
 20
183.5592153813196
 30
0.0
 40
3.5
  1
庫内温度
  7
HG丸ｺﾞｼｯｸM-PRO
 72
     4
 11
192.3949875068253
 21
185.2190091957526
 31
0.0
100
AcDbText
  0
LINE
  5
13A6
330
18
100
AcDbEntity
  8
1
100
AcDbLine
 10
187.5949875068254
 20
160.5190091957526
 30
0.0
 11
225.5949875068254
 21
160.5190091957526
 31
0.0
  0
LINE
  5
13A7
330
18
100
AcDbEntity
  8
1
100
AcDbLine
 10
187.5949875068254
 20
162.5190091957526
 30
0.0
 11
225.5949875068254
 21
162.5190091957526
 31
0.0
  0
TEXT
  5
13A8
330
18
100
AcDbEntity
  8
1
100
AcDbText
 10
187.6354514243512
 20
160.9437514637938
 30
0.0
 40
1.199999999999999
  1
THERMOSTAT SYSTEM UNIT
 41
1.55
  7
HG丸ｺﾞｼｯｸM-PRO
 72
     4
 11
206.5949875068254
 21
161.5190091957526
 31
0.0
100
AcDbText
  0
LWPOLYLINE
  5
13A9
330
18
100
AcDbEntity
  8
1
100
AcDbPolyline
 90
        8
 70
     1
 43
0.0
 10
181.3449875068254
 20
189.7190091957526
 10
215.8449875068254
 20
189.7190091957526
 42
0.4142135623730951
 10
217.3449875068254
 20
191.2190091957526
 10
217.3449875068254
 20
206.2190091957526
 42
0.4142135623730951
 10
215.8449875068254
 20
207.7190091957526
 10
181.3449875068254
 20
207.7190091957526
 42
0.4142135623730951
 10
179.8449875068254
 20
206.2190091957526
 10
179.8449875068254
 20
191.2190091957526
 42
0.4142135623730951
  0
INSERT
  5
13AA
330
18
100
AcDbEntity
  8
1
100
AcDbBlockReference
  2
A$C35D25C1A
 10
217.3449875068254
 20
208.2190091957526
 30
0.0
  0
DIMENSION
  5
13AB
330
18
100
AcDbEntity
  8
2
100
AcDbDimension
  2
*D8
 10
149.0949871548123
 20
223.2190091957526
 30
0.0
 11
147.3449871548122
 21
187.2190091957526
 31
0.0
 70
    32
 71
     5
 42
72.0
  3
STANDARD
100
AcDbAlignedDimension
 13
158.0949875068254
 23
151.2190091957526
 33
0.0
 14
158.0949875068254
 24
223.2190091957526
 34
0.0
 50
90.0
100
AcDbRotatedDimension
1001
ACAD
1000
DSTYLE
1002
{
1070
    40
1040
1.0
1002
}
  0
ARC
  5
13AC
330
18
100
AcDbEntity
  8
1
100
AcDbCircle
 10
188.034751801433
 20
194.9690091957526
 30
0.0
 40
20.0
100
AcDbArc
 50
132.5988128924515
 51
227.4011871075485
  0
LINE
  5
13AD
330
18
100
AcDbEntity
  8
1
100
AcDbLine
 10
161.0949875068254
 20
219.2190091957526
 30
0.0
 11
161.0949875068254
 21
155.2190091957526
 31
0.0
  0
LINE
  5
13AE
330
18
100
AcDbEntity
  8
1
100
AcDbLine
 10
163.7949875068254
 20
217.0190091957525
 30
0.0
 11
163.7949875068254
 21
157.4190091957526
 31
0.0
  0
LINE
  5
13AF
330
18
100
AcDbEntity
  8
1
100
AcDbLine
 10
158.0949875068254
 20
221.2190091957526
 30
0.0
 11
158.0949875068254
 21
153.2190091957526
 31
0.0
  0
ARC
  5
13B0
330
18
100
AcDbEntity
  8
1
100
AcDbCircle
 10
162.0949875068254
 20
155.2190091957526
 30
0.0
 40
1.0
100
AcDbArc
 50
180.0
 51
270.0
  0
ARC
  5
13B1
330
18
100
AcDbEntity
  8
1
100
AcDbCircle
 10
160.0949875068254
 20
153.2190091957526
 30
0.0
 40
2.0
100
AcDbArc
 50
180.0
 51
270.0
  0
LINE
  5
13B2
330
18
100
AcDbEntity
  8
1
100
AcDbLine
 10
161.3878807256389
 20
154.511902414566
 30
0.0
 11
158.6807739444523
 21
151.8047956333795
 31
0.0
  0
ARC
  5
13B3
330
18
100
AcDbEntity
  8
1
100
AcDbCircle
 10
164.2949875068254
 20
157.4190091957526
 30
0.0
 40
0.5
100
AcDbArc
 50
180.0
 51
270.0
  0
TEXT
  5
13B4
330
18
100
AcDbEntity
  8
1
100
AcDbText
 10
169.5795235892996
 20
159.6324112576083
 30
0.0
 40
4.0
  1
MD-Ⅱ
  7
HG丸ｺﾞｼｯｸM-PRO
 72
     4
 11
178.0949875068254
 21
161.5190091957526
 31
0.0
100
AcDbText
  0
ARC
  5
13B5
330
18
100
AcDbEntity
  8
1
100
AcDbCircle
 10
187.5949875068254
 20
161.5190091957526
 30
0.0
 40
1.0
100
AcDbArc
 50
90.0
 51
270.0
  0
ARC
  5
13B6
330
18
100
AcDbEntity
  8
1
100
AcDbCircle
 10
175.8512588704218
 20
181.7190091957526
 30
0.0
 40
2.0
100
AcDbArc
 50
227.4011871075485
 51
270.0
  0
LINE
  5
13B7
330
18
100
AcDbEntity
  8
1
100
AcDbLine
 10
161.3878807256389
 20
219.9261159769391
 30
0.0
 11
158.6807739444523
 21
222.6332227581257
 31
0.0
  0
ARC
  5
13B8
330
18
100
AcDbEntity
  8
1
100
AcDbCircle
 10
162.0949875068254
 20
219.2190091957526
 30
0.0
 40
1.0
100
AcDbArc
 50
90.0
 51
180.0
  0
ARC
  5
13B9
330
18
100
AcDbEntity
  8
1
100
AcDbCircle
 10
164.2949875068254
 20
217.0190091957525
 30
0.0
 40
0.5
100
AcDbArc
 50
90.0
 51
180.0
  0
ARC
  5
13BA
330
18
100
AcDbEntity
  8
1
100
AcDbCircle
 10
160.0949875068254
 20
221.2190091957526
 30
0.0
 40
2.0
100
AcDbArc
 50
90.0
 51
180.0
  0
ARC
  5
13BB
330
18
100
AcDbEntity
  8
1
100
AcDbCircle
 10
175.8512588704218
 20
208.2190091957526
 30
0.0
 40
2.0
100
AcDbArc
 50
90.0
 51
132.5988128924515
  0
ARC
  5
13BC
330
18
100
AcDbEntity
  8
1
100
AcDbCircle
 10
225.5949875068254
 20
161.5190091957526
 30
0.0
 40
1.0
100
AcDbArc
 50
270.0
 51
90.0
  0
ARC
  5
13BD
330
18
100
AcDbEntity
  8
1
100
AcDbCircle
 10
265.1668788951326
 20
187.7190091957526
 30
0.0
 40
40.0
100
AcDbArc
 50
191.536959032815
 51
212.6478174351371
  0
LINE
  5
13BE
330
18
100
AcDbEntity
  8
1
100
AcDbLine
 10
246.0949875068254
 20
175.7190091957526
 30
0.0
 11
231.9664510365025
 21
175.7190091957526
 31
0.0
  0
LINE
  5
13BF
330
18
100
AcDbEntity
  8
1
100
AcDbLine
 10
246.0949875068254
 20
167.7190091957526
 30
0.0
 11
234.6772309263501
 21
167.7190091957526
 31
0.0
  0
ARC
  5
13C0
330
18
100
AcDbEntity
  8
1
100
AcDbCircle
 10
268.7360036582028
 20
187.7190091957526
 30
0.0
 40
40.0
100
AcDbArc
 50
199.4712206344958
 51
209.1553654262809
  0
TEXT
  5
13C1
330
18
100
AcDbEntity
  8
1
100
AcDbText
 10
235.6362246202274
 20
170.2731329070928
 30
0.0
 40
3.0
  1
設定
  7
HG丸ｺﾞｼｯｸM-PRO
 72
     4
 11
239.5949875068254
 21
171.7190091957526
 31
0.0
100
AcDbText
  0
ARC
  5
13C2
330
18
100
AcDbEntity
  8
1
100
AcDbCircle
 10
234.6772309263501
 20
168.7190091957526
 30
0.0
 40
1.0
100
AcDbArc
 50
209.1553654262838
 51
270.0
  0
ARC
  5
13C3
330
18
100
AcDbEntity
  8
1
100
AcDbCircle
 10
233.1707853835805
 20
167.2190091957525
 30
0.0
 40
2.0
100
AcDbArc
 50
212.6478174351371
 51
270.0
  0
ARC
  5
13C4
330
18
100
AcDbEntity
  8
1
100
AcDbCircle
 10
231.9664510365025
 20
174.7190091957526
 30
0.0
 40
1.0
100
AcDbArc
 50
90.0
 51
199.4712206344958
  0
ARC
  5
13C5
330
18
100
AcDbEntity
  8
1
370
     9
100
AcDbCircle
 10
229.1626908029682
 20
177.3190091957525
 30
0.0
 40
0.1
100
AcDbArc
 50
201.8014094863523
 51
270.0
  0
ARC
  5
13C6
330
18
100
AcDbEntity
  8
1
370
     9
100
AcDbCircle
 10
229.138690802968
 20
177.3790091957526
 30
0.0
 40
0.1
100
AcDbArc
 50
90.0
 51
201.8014094863581
  0
ARC
  5
13C7
330
18
100
AcDbEntity
  8
1
370
     9
100
AcDbCircle
 10
228.946690802968
 20
177.8590091957526
 30
0.0
 40
0.1
100
AcDbArc
 50
201.8014094863523
 51
270.0
  0
ARC
  5
13C8
330
18
100
AcDbEntity
  8
1
370
     9
100
AcDbCircle
 10
228.9146908029681
 20
177.9390091957526
 30
0.0
 40
0.1
100
AcDbArc
 50
90.0
 51
201.8014094863549
  0
ARC
  5
13C9
330
18
100
AcDbEntity
  8
1
370
     9
100
AcDbCircle
 10
228.7226908029681
 20
178.4190091957526
 30
0.0
 40
0.1
100
AcDbArc
 50
201.8014094863549
 51
270.0
  0
ARC
  5
13CA
330
18
100
AcDbEntity
  8
1
370
     9
100
AcDbCircle
 10
228.6906908029679
 20
178.4990091957526
 30
0.0
 40
0.1
100
AcDbArc
 50
90.0
 51
201.8014094863594
  0
ARC
  5
13CB
330
18
100
AcDbEntity
  8
1
370
     9
100
AcDbCircle
 10
228.4986908029682
 20
178.9790091957525
 30
0.0
 40
0.1
100
AcDbArc
 50
201.8014094863658
 51
270.0
  0
ARC
  5
13CC
330
18
100
AcDbEntity
  8
1
370
     9
100
AcDbCircle
 10
228.466690802968
 20
179.0590091957525
 30
0.0
 40
0.1
100
AcDbArc
 50
90.0
 51
201.8014094863523
  0
ARC
  5
13CD
330
18
100
AcDbEntity
  8
1
370
     9
100
AcDbCircle
 10
228.274690802968
 20
179.5390091957525
 30
0.0
 40
0.1
100
AcDbArc
 50
201.8014094863549
 51
270.0
  0
ARC
  5
13CE
330
18
100
AcDbEntity
  8
1
370
     9
100
AcDbCircle
 10
228.2426908029681
 20
179.6190091957526
 30
0.0
 40
0.1
100
AcDbArc
 50
90.0
 51
201.8014094863352
  0
LINE
  5
13CF
330
18
100
AcDbEntity
  8
1
370
     9
100
AcDbLine
 10
228.1498431338795
 20
179.5818701281172
 30
0.0
 11
228.1818431338795
 21
179.5018701281171
 31
0.0
  0
LINE
  5
13D0
330
18
100
AcDbEntity
  8
1
370
     9
100
AcDbLine
 10
228.3738431338795
 20
179.0218701281172
 30
0.0
 11
228.4058431338796
 21
178.9418701281171
 31
0.0
  0
LINE
  5
13D1
330
18
100
AcDbEntity
  8
1
370
     9
100
AcDbLine
 10
228.5978431338796
 20
178.4618701281172
 30
0.0
 11
228.6298431338796
 21
178.3818701281172
 31
0.0
  0
LINE
  5
13D2
330
18
100
AcDbEntity
  8
1
370
     9
100
AcDbLine
 10
229.0458431338795
 20
177.3418701281172
 30
0.0
 11
229.0698431338794
 21
177.2818701281171
 31
0.0
  0
LINE
  5
13D3
330
18
100
AcDbEntity
  8
1
370
     9
100
AcDbLine
 10
228.8218431338796
 20
177.9018701281172
 30
0.0
 11
228.8538431338795
 21
177.8218701281172
 31
0.0
  0
TEXT
  5
13D4
330
18
100
AcDbEntity
  8
1
100
AcDbText
 10
236.0640596717738
 20
177.2898854844124
 30
0.0
 40
2.5
  1
SET
  7
HG丸ｺﾞｼｯｸM-PRO
 72
     4
 11
239.5949875068254
 21
178.4690091957526
 31
0.0
100
AcDbText
  0
HATCH
  5
13D5
330
18
100
AcDbEntity
  8
1
100
AcDbHatch
 10
0.0
 20
0.0
 30
0.0
210
0.0
220
0.0
230
1.0
  2
SOLID
 70
     1
 71
     0
 91
        2
 92
        7
 72
     1
 73
     1
 93
       10
 10
261.4582330600287
 20
171.4234243801537
 42
0.3228228060549145
 10
261.5949875068254
 20
171.6131610397637
 42
0.0
 10
261.5949875068254
 20
171.6915240184079
 42
0.5119182938527715
 10
261.3317419536219
 20
171.8812606780182
 42
0.0
 10
258.5949875068254
 20
170.9690091957526
 42
0.0
 10
255.8582330600288
 20
171.8812606780182
 42
0.5119182938525026
 10
255.5949875068254
 20
171.6915240184081
 42
0.0
 10
255.5949875068254
 20
171.6131610397638
 42
0.3228228060551106
 10
255.731741953622
 20
171.4234243801537
 42
0.0
 10
258.5949875068254
 20
170.4690091957526
 42
0.0
 97
        0
 92
        7
 72
     1
 73
     1
 93
       10
 10
261.4582330600287
 20
172.4234243801537
 42
0.3228228060549145
 10
261.5949875068254
 20
172.6131610397637
 42
0.0
 10
261.5949875068254
 20
172.6915240184079
 42
0.5119182938527715
 10
261.3317419536219
 20
172.8812606780182
 42
0.0
 10
258.5949875068254
 20
171.9690091957526
 42
0.0
 10
255.8582330600288
 20
172.8812606780181
 42
0.5119182938525473
 10
255.5949875068254
 20
172.691524018408
 42
0.0
 10
255.5949875068254
 20
172.6131610397638
 42
0.3228228060551106
 10
255.731741953622
 20
172.4234243801537
 42
0.0
 10
258.5949875068254
 20
171.4690091957526
 42
0.0
 97
        0
 75
     0
 76
     1
 47
0.0095974793694553
 98
        2
 10
258.8486789585149
 20
170.6839648482493
 10
259.059977024794
 20
171.8644549242573
  0
LINE
  5
13D6
330
18
100
AcDbEntity
  8
1
100
AcDbLine
 10
247.0949875068254
 20
168.7190091957526
 30
0.0
 11
247.0949875068254
 21
174.7190091957526
 31
0.0
  0
ARC
  5
13D7
330
18
100
AcDbEntity
  8
1
100
AcDbCircle
 10
246.0949875068254
 20
168.7190091957526
 30
0.0
 40
1.0
100
AcDbArc
 50
270.0
 51
0.0
  0
ARC
  5
13D8
330
18
100
AcDbEntity
  8
1
100
AcDbCircle
 10
246.0949875068254
 20
174.7190091957526
 30
0.0
 40
1.0
100
AcDbArc
 50
0.0
 51
90.0
  0
TEXT
  5
13D9
330
18
100
AcDbEntity
  8
1
100
AcDbText
 10
204.177977197547
 20
184.1643700204948
 30
0.0
 40
2.2
  1
PV
  7
HG丸ｺﾞｼｯｸM-PRO
 72
     4
 11
206.3949875068253
 21
185.2190091957526
 31
0.0
100
AcDbText
  0
TEXT
  5
13DA
330
18
100
AcDbEntity
  8
1
100
AcDbText
 10
219.2857091563099
 20
201.9419473400825
 30
0.0
 40
3.5
  1
℃
  7
HG丸ｺﾞｼｯｸM-PRO
 72
     4
 11
221.5949875068254
 21
203.7190091957526
 31
0.0
100
AcDbText
  0
LINE
  5
13DB
330
18
100
AcDbEntity
  8
1
100
AcDbLine
 10
251.8629366992565
 20
192.2190091957526
 30
0.0
 11
255.3270383143942
 21
192.2190091957526
 31
0.0
  0
LINE
  5
13DC
330
18
100
AcDbEntity
  8
1
100
AcDbLine
 10
255.3270383143942
 20
195.2190091957526
 30
0.0
 11
251.8629366992565
 21
195.2190091957526
 31
0.0
  0
ARC
  5
13DD
330
18
100
AcDbEntity
  8
1
100
AcDbCircle
 10
253.5949875068254
 20
193.7190091957526
 30
0.0
 40
2.5
100
AcDbArc
 50
150.0000000000041
 51
209.9999999999958
  0
ARC
  5
13DE
330
18
100
AcDbEntity
  8
1
100
AcDbCircle
 10
251.8629366992565
 20
192.7190091957526
 30
0.0
 40
0.5
100
AcDbArc
 50
209.9999999999958
 51
270.0
  0
ARC
  5
13DF
330
18
100
AcDbEntity
  8
1
100
AcDbCircle
 10
251.8629366992565
 20
194.7190091957526
 30
0.0
 40
0.5
100
AcDbArc
 50
90.0
 51
150.0000000000041
  0
ARC
  5
13E0
330
18
100
AcDbEntity
  8
1
100
AcDbCircle
 10
253.5949875068254
 20
193.7190091957526
 30
0.0
 40
2.5
100
AcDbArc
 50
330.0000000000041
 51
29.99999999999583
  0
ARC
  5
13E1
330
18
100
AcDbEntity
  8
1
100
AcDbCircle
 10
255.3270383143942
 20
192.7190091957526
 30
0.0
 40
0.5
100
AcDbArc
 50
270.0
 51
330.0000000000041
  0
ARC
  5
13E2
330
18
100
AcDbEntity
  8
1
100
AcDbCircle
 10
255.3270383143942
 20
194.7190091957526
 30
0.0
 40
0.5
100
AcDbArc
 50
29.99999999999583
 51
90.0
  0
LINE
  5
13E3
330
18
100
AcDbEntity
  8
1
100
AcDbLine
 10
255.3270383143942
 20
205.2190091957526
 30
0.0
 11
251.8629366992565
 21
205.2190091957526
 31
0.0
  0
LINE
  5
13E4
330
18
100
AcDbEntity
  8
1
100
AcDbLine
 10
251.8629366992565
 20
202.2190091957526
 30
0.0
 11
255.3270383143942
 21
202.2190091957526
 31
0.0
  0
ARC
  5
13E5
330
18
100
AcDbEntity
  8
1
100
AcDbCircle
 10
251.8629366992565
 20
202.7190091957526
 30
0.0
 40
0.5
100
AcDbArc
 50
209.9999999999958
 51
270.0
  0
ARC
  5
13E6
330
18
100
AcDbEntity
  8
1
100
AcDbCircle
 10
251.8629366992565
 20
204.7190091957526
 30
0.0
 40
0.5
100
AcDbArc
 50
90.0
 51
150.0000000000041
  0
ARC
  5
13E7
330
18
100
AcDbEntity
  8
1
100
AcDbCircle
 10
253.5949875068254
 20
203.7190091957526
 30
0.0
 40
2.5
100
AcDbArc
 50
150.0000000000041
 51
209.9999999999958
  0
ARC
  5
13E8
330
18
100
AcDbEntity
  8
1
100
AcDbCircle
 10
255.3270383143942
 20
202.7190091957526
 30
0.0
 40
0.5
100
AcDbArc
 50
270.0
 51
330.0000000000041
  0
ARC
  5
13E9
330
18
100
AcDbEntity
  8
1
100
AcDbCircle
 10
255.3270383143942
 20
204.7190091957526
 30
0.0
 40
0.5
100
AcDbArc
 50
29.99999999999583
 51
90.0
  0
ARC
  5
13EA
330
18
100
AcDbEntity
  8
1
100
AcDbCircle
 10
253.5949875068254
 20
203.7190091957526
 30
0.0
 40
2.5
100
AcDbArc
 50
330.0000000000041
 51
29.99999999999583
  0
LINE
  5
13EB
330
18
100
AcDbEntity
  8
1
100
AcDbLine
 10
302.0949875068254
 20
68.11129425280262
 30
0.0
 11
299.0949875068254
 21
71.11129425280262
 31
0.0
  0
LINE
  5
13EC
330
18
100
AcDbEntity
  8
1
100
AcDbLine
 10
298.0949875068254
 20
67.11129425280262
 30
0.0
 11
298.0949875068254
 21
57.11129425280268
 31
0.0
  0
LINE
  5
13ED
330
18
100
AcDbEntity
  8
1
100
AcDbLine
 10
271.5949875068254
 20
66.6112942528029
 30
0.0
 11
271.5949875068254
 21
57.11129425280268
 31
0.0
  0
LINE
  5
13EE
330
18
100
AcDbEntity
  8
1
100
AcDbLine
 10
279.5949875068254
 20
66.61129425280262
 30
0.0
 11
279.5949875068254
 21
57.11129425280268
 31
0.0
  0
LINE
  5
13EF
330
18
100
AcDbEntity
  8
1
100
AcDbLine
 10
280.5949875068254
 20
67.11129425280262
 30
0.0
 11
280.5949875068254
 21
57.11129425280268
 31
0.0
  0
LINE
  5
13F0
330
18
100
AcDbEntity
  8
1
100
AcDbLine
 10
270.5949875068254
 20
67.11129425280262
 30
0.0
 11
270.5949875068254
 21
46.11129425280262
 31
0.0
  0
LINE
  5
13F1
330
18
100
AcDbEntity
  8
1
100
AcDbLine
 10
297.8949875068254
 20
57.11129425280268
 30
0.0
 11
280.5949875068254
 21
57.11129425280268
 31
0.0
  0
LINE
  5
13F2
330
18
100
AcDbEntity
  8
1
100
AcDbLine
 10
279.5949875068254
 20
57.11129425280268
 30
0.0
 11
271.5949875068254
 21
57.11129425280268
 31
0.0
  0
LINE
  5
13F3
330
18
100
AcDbEntity
  8
1
  6
ByBlock
100
AcDbLine
 10
265.5949875068251
 20
51.61129425280262
 30
0.0
 11
266.5949875068251
 21
51.61129425280262
 31
0.0
  0
LINE
  5
13F4
330
18
100
AcDbEntity
  8
1
  6
ByBlock
100
AcDbLine
 10
266.5949875068251
 20
48.61129425280262
 30
0.0
 11
265.5949875068251
 21
48.61129425280262
 31
0.0
  0
ARC
  5
13F5
330
18
100
AcDbEntity
  8
1
  6
ByBlock
100
AcDbCircle
 10
265.0949875068251
 20
49.11129425280262
 30
0.0
 40
0.5
100
AcDbArc
 50
0.0
 51
90.0
  0
ARC
  5
13F6
330
18
100
AcDbEntity
  8
1
  6
ByBlock
100
AcDbCircle
 10
265.0949875068251
 20
51.11129425280262
 30
0.0
 40
0.5
100
AcDbArc
 50
270.0
 51
0.0
  0
LINE
  5
13F7
330
18
100
AcDbEntity
  8
1
  6
ByBlock
100
AcDbLine
 10
265.5949875068251
 20
51.11129425280262
 30
0.0
 11
265.5949875068251
 21
51.61129425280262
 31
0.0
  0
LINE
  5
13F8
330
18
100
AcDbEntity
  8
1
  6
ByBlock
100
AcDbLine
 10
265.5949875068251
 20
48.61129425280262
 30
0.0
 11
265.5949875068251
 21
49.11129425280262
 31
0.0
  0
LINE
  5
13F9
330
18
100
AcDbEntity
  8
1
  6
ByBlock
100
AcDbLine
 10
267.5949875068251
 20
50.61129425280262
 30
0.0
 11
267.5949875068251
 21
49.61129425280262
 31
0.0
  0
LINE
  5
13FA
330
18
100
AcDbEntity
  8
1
  6
ByBlock
100
AcDbLine
 10
266.5949875068251
 20
51.61129425280262
 30
0.0
 11
266.5949875068251
 21
51.11129425280262
 31
0.0
  0
LINE
  5
13FB
330
18
100
AcDbEntity
  8
1
  6
ByBlock
100
AcDbLine
 10
267.0949875068251
 20
50.61129425280262
 30
0.0
 11
267.5949875068251
 21
50.61129425280262
 31
0.0
  0
ARC
  5
13FC
330
18
100
AcDbEntity
  8
1
  6
ByBlock
100
AcDbCircle
 10
267.0949875068251
 20
51.11129425280262
 30
0.0
 40
0.5
100
AcDbArc
 50
180.0
 51
270.0
  0
LINE
  5
13FD
330
18
100
AcDbEntity
  8
1
  6
ByBlock
100
AcDbLine
 10
267.5949875068251
 20
49.61129425280262
 30
0.0
 11
267.0949875068251
 21
49.61129425280262
 31
0.0
  0
LINE
  5
13FE
330
18
100
AcDbEntity
  8
1
  6
ByBlock
100
AcDbLine
 10
266.5949875068251
 20
49.11129425280262
 30
0.0
 11
266.5949875068251
 21
48.61129425280262
 31
0.0
  0
ARC
  5
13FF
330
18
100
AcDbEntity
  8
1
  6
ByBlock
100
AcDbCircle
 10
267.0949875068251
 20
49.11129425280262
 30
0.0
 40
0.5
100
AcDbArc
 50
90.0
 51
180.0
  0
LINE
  5
1400
330
18
100
AcDbEntity
  8
1
  6
ByBlock
100
AcDbLine
 10
264.5949875068251
 20
49.61129425280262
 30
0.0
 11
264.5949875068251
 21
50.61129425280262
 31
0.0
  0
LINE
  5
1401
330
18
100
AcDbEntity
  8
1
  6
ByBlock
100
AcDbLine
 10
265.0949875068251
 20
49.61129425280262
 30
0.0
 11
264.5949875068251
 21
49.61129425280262
 31
0.0
  0
LINE
  5
1402
330
18
100
AcDbEntity
  8
1
  6
ByBlock
100
AcDbLine
 10
264.5949875068251
 20
50.61129425280262
 30
0.0
 11
265.0949875068251
 21
50.61129425280262
 31
0.0
  0
CIRCLE
  5
1403
330
18
100
AcDbEntity
  8
1
  6
ByBlock
100
AcDbCircle
 10
266.0949875068252
 20
50.11129425280262
 30
0.0
 40
2.799999999999999
  0
LINE
  5
1404
330
18
100
AcDbEntity
  8
1
100
AcDbLine
 10
279.5949875068254
 20
66.61129425280262
 30
0.0
 11
271.5949875068254
 21
66.6112942528029
 31
0.0
  0
LINE
  5
1405
330
18
100
AcDbEntity
  8
1
100
AcDbLine
 10
279.5949875068254
 20
65.61129425280262
 30
0.0
 11
271.5949875068254
 21
65.61129425280291
 31
0.0
  0
LINE
  5
1406
330
18
100
AcDbEntity
  8
1
100
AcDbLine
 10
279.5949875068254
 20
64.61129425280262
 30
0.0
 11
271.5949875068254
 21
64.6112942528029
 31
0.0
  0
LINE
  5
1407
330
18
100
AcDbEntity
  8
1
100
AcDbLine
 10
279.5949875068251
 20
63.61129425280262
 30
0.0
 11
271.5949875068251
 21
63.61129425280291
 31
0.0
  0
LINE
  5
1408
330
18
100
AcDbEntity
  8
1
100
AcDbLine
 10
279.5949875068251
 20
62.61129425280262
 30
0.0
 11
271.5949875068251
 21
62.61129425280291
 31
0.0
  0
LINE
  5
1409
330
18
100
AcDbEntity
  8
1
100
AcDbLine
 10
302.0949875068254
 20
68.11129425280262
 30
0.0
 11
302.0949875068254
 21
67.11129425280262
 31
0.0
  0
ARC
  5
140A
330
18
100
AcDbEntity
  8
1
100
AcDbCircle
 10
252.0230961185181
 20
187.7190091957526
 30
0.0
 40
40.0
100
AcDbArc
 50
327.3521825648627
 51
32.64781743513718
  0
LINE
  5
140B
330
18
100
AcDbEntity
  8
1
100
AcDbLine
 10
302.0949875068254
 20
153.2190091957526
 30
0.0
 11
302.0949875068254
 21
221.2190091957526
 31
0.0
  0
LINE
  5
140C
330
18
100
AcDbEntity
  8
1
100
AcDbLine
 10
299.0949875068254
 20
155.2190091957526
 30
0.0
 11
299.0949875068254
 21
219.2190091957526
 31
0.0
  0
LINE
  5
140D
330
18
100
AcDbEntity
  8
1
100
AcDbLine
 10
296.3949875068253
 20
157.4190091957526
 30
0.0
 11
296.3949875068253
 21
217.0190091957525
 31
0.0
  0
ARC
  5
140E
330
18
100
AcDbEntity
  8
1
100
AcDbCircle
 10
298.0949875068254
 20
155.2190091957526
 30
0.0
 40
1.0
100
AcDbArc
 50
270.0
 51
0.0
  0
LINE
  5
140F
330
18
100
AcDbEntity
  8
1
100
AcDbLine
 10
298.8020942880118
 20
154.511902414566
 30
0.0
 11
301.5092010691985
 21
151.8047956333795
 31
0.0
  0
INSERT
  5
1410
330
18
100
AcDbEntity
  8
1
370
    13
100
AcDbBlockReference
  2
NIPPO-1
 10
280.0949875068254
 20
159.0690091957526
 30
0.0
 41
0.400000000000091
 42
0.3999999999999772
 43
0.4
  0
ARC
  5
1411
330
18
100
AcDbEntity
  8
1
100
AcDbCircle
 10
295.8949875068253
 20
157.4190091957526
 30
0.0
 40
0.5
100
AcDbArc
 50
270.0
 51
0.0
  0
LINE
  5
1412
330
18
100
AcDbEntity
  8
1
100
AcDbLine
 10
271.0949875068254
 20
175.7190091957526
 30
0.0
 11
285.2235239771482
 21
175.7190091957526
 31
0.0
  0
LINE
  5
1413
330
18
100
AcDbEntity
  8
1
100
AcDbLine
 10
271.0949875068254
 20
167.7190091957526
 30
0.0
 11
282.5127440873007
 21
167.7190091957526
 31
0.0
  0
HATCH
  5
1414
330
18
100
AcDbEntity
  8
1
100
AcDbHatch
 10
0.0
 20
0.0
 30
0.0
210
0.0
220
0.0
230
1.0
  2
SOLID
 70
     1
 71
     0
 91
        2
 92
        7
 72
     1
 73
     1
 93
       10
 10
274.731741953622
 20
172.0145940113515
 42
0.3228228060548949
 10
274.5949875068254
 20
171.8248573517415
 42
0.0
 10
274.5949875068254
 20
171.7464943730973
 42
0.5119182938527094
 10
274.8582330600286
 20
171.556757713487
 42
0.0
 10
277.5949875068254
 20
172.4690091957526
 42
0.0
 10
280.3317419536219
 20
171.5567577134871
 42
0.5119182938525873
 10
280.5949875068254
 20
171.7464943730971
 42
0.0
 10
280.5949875068254
 20
171.8248573517414
 42
0.3228228060551106
 10
280.4582330600287
 20
172.0145940113515
 42
0.0
 10
277.5949875068254
 20
172.9690091957526
 42
0.0
 97
        0
 92
        7
 72
     1
 73
     1
 93
       10
 10
274.731741953622
 20
171.0145940113515
 42
0.3228228060548949
 10
274.5949875068254
 20
170.8248573517415
 42
0.0
 10
274.5949875068254
 20
170.7464943730973
 42
0.5119182938527094
 10
274.8582330600286
 20
170.556757713487
 42
0.0
 10
277.5949875068254
 20
171.4690091957526
 42
0.0
 10
280.3317419536219
 20
170.5567577134871
 42
0.5119182938525873
 10
280.5949875068254
 20
170.7464943730972
 42
0.0
 10
280.5949875068254
 20
170.8248573517414
 42
0.3228228060551106
 10
280.4582330600287
 20
171.0145940113515
 42
0.0
 10
277.5949875068254
 20
171.9690091957526
 42
0.0
 97
        0
 75
     0
 76
     1
 47
0.0095974793694553
 98
        2
 10
277.3412960551358
 20
172.7540535432559
 10
277.1299979888565
 20
171.5735634672479
  0
LINE
  5
1415
330
18
100
AcDbEntity
  8
1
100
AcDbLine
 10
270.0949875068254
 20
168.7190091957526
 30
0.0
 11
270.0949875068254
 21
174.7190091957526
 31
0.0
  0
ARC
  5
1416
330
18
100
AcDbEntity
  8
1
100
AcDbCircle
 10
271.0949875068254
 20
168.7190091957526
 30
0.0
 40
1.0
100
AcDbArc
 50
180.0
 51
270.0
  0
ARC
  5
1417
330
18
100
AcDbEntity
  8
1
100
AcDbCircle
 10
271.0949875068254
 20
174.7190091957526
 30
0.0
 40
1.0
100
AcDbArc
 50
90.0
 51
180.0
  0
TEXT
  5
1418
330
18
100
AcDbEntity
  8
1
100
AcDbText
 10
275.0885442078563
 20
177.2898854844124
 30
0.0
 40
2.5
  1
UP
  7
HG丸ｺﾞｼｯｸM-PRO
 72
     4
 11
277.5949875068254
 21
178.4690091957526
 31
0.0
100
AcDbText
  0
ARC
  5
1419
330
18
100
AcDbEntity
  8
1
100
AcDbCircle
 10
248.4539713554479
 20
187.7190091957526
 30
0.0
 40
40.0
100
AcDbArc
 50
330.844634573719
 51
340.5287793655042
  0
ARC
  5
141A
330
18
100
AcDbEntity
  8
1
100
AcDbCircle
 10
282.5127440873007
 20
168.7190091957526
 30
0.0
 40
1.0
100
AcDbArc
 50
270.0
 51
330.8446345737162
  0
ARC
  5
141B
330
18
100
AcDbEntity
  8
1
100
AcDbCircle
 10
284.0191896300705
 20
167.2190091957526
 30
0.0
 40
2.0
100
AcDbArc
 50
270.0
 51
327.3521825648627
  0
ARC
  5
141C
330
18
100
AcDbEntity
  8
1
370
     9
100
AcDbCircle
 10
288.0272842106826
 20
177.3190091957525
 30
0.0
 40
0.1
100
AcDbArc
 50
270.0
 51
338.1985905136509
  0
ARC
  5
141D
330
18
100
AcDbEntity
  8
1
370
     9
100
AcDbCircle
 10
288.0512842106827
 20
177.3790091957526
 30
0.0
 40
0.1
100
AcDbArc
 50
338.1985905136646
 51
90.0
  0
ARC
  5
141E
330
18
100
AcDbEntity
  8
1
370
     9
100
AcDbCircle
 10
288.2432842106827
 20
177.8590091957526
 30
0.0
 40
0.1
100
AcDbArc
 50
270.0
 51
338.1985905136341
  0
ARC
  5
141F
330
18
100
AcDbEntity
  8
1
370
     9
100
AcDbCircle
 10
288.2752842106826
 20
177.9390091957525
 30
0.0
 40
0.1
100
AcDbArc
 50
338.1985905136405
 51
90.0
  0
ARC
  5
1420
330
18
100
AcDbEntity
  8
1
370
     9
100
AcDbCircle
 10
288.4672842106827
 20
178.4190091957526
 30
0.0
 40
0.1
100
AcDbArc
 50
270.0
 51
338.1985905136157
  0
ARC
  5
1421
330
18
100
AcDbEntity
  8
1
370
     9
100
AcDbCircle
 10
288.4992842106828
 20
178.4990091957526
 30
0.0
 40
0.1
100
AcDbArc
 50
338.1985905136476
 51
90.0
  0
ARC
  5
1422
330
18
100
AcDbEntity
  8
1
370
     9
100
AcDbCircle
 10
288.6912842106828
 20
178.9790091957525
 30
0.0
 40
0.1
100
AcDbArc
 50
270.0
 51
338.198590513645
  0
ARC
  5
1423
330
18
100
AcDbEntity
  8
1
370
     9
100
AcDbCircle
 10
288.7232842106827
 20
179.0590091957526
 30
0.0
 40
0.1
100
AcDbArc
 50
338.198590513645
 51
90.0
  0
ARC
  5
1424
330
18
100
AcDbEntity
  8
1
370
     9
100
AcDbCircle
 10
288.9152842106827
 20
179.5390091957526
 30
0.0
 40
0.1
100
AcDbArc
 50
270.0
 51
338.1985905136692
  0
ARC
  5
1425
330
18
100
AcDbEntity
  8
1
370
     9
100
AcDbCircle
 10
288.9472842106826
 20
179.6190091957526
 30
0.0
 40
0.1
100
AcDbArc
 50
338.1985905136509
 51
90.0
  0
LINE
  5
1426
330
18
100
AcDbEntity
  8
1
370
     9
100
AcDbLine
 10
289.0401318797712
 20
179.5818701281172
 30
0.0
 11
289.0081318797713
 21
179.5018701281172
 31
0.0
  0
LINE
  5
1427
330
18
100
AcDbEntity
  8
1
370
     9
100
AcDbLine
 10
288.8161318797713
 20
179.0218701281172
 30
0.0
 11
288.7841318797711
 21
178.9418701281171
 31
0.0
  0
LINE
  5
1428
330
18
100
AcDbEntity
  8
1
370
     9
100
AcDbLine
 10
288.5921318797713
 20
178.4618701281172
 30
0.0
 11
288.5601318797712
 21
178.3818701281171
 31
0.0
  0
LINE
  5
1429
330
18
100
AcDbEntity
  8
1
370
     9
100
AcDbLine
 10
288.3681318797712
 20
177.9018701281172
 30
0.0
 11
288.3361318797712
 21
177.8218701281172
 31
0.0
  0
LINE
  5
142A
330
18
100
AcDbEntity
  8
1
370
     9
100
AcDbLine
 10
288.1441318797712
 20
177.3418701281172
 30
0.0
 11
288.1201318797713
 21
177.2818701281171
 31
0.0
  0
ARC
  5
142B
330
18
100
AcDbEntity
  8
1
100
AcDbCircle
 10
285.2235239771482
 20
174.7190091957526
 30
0.0
 40
1.0
100
AcDbArc
 50
340.5287793655042
 51
90.0
  0
ARC
  5
142C
330
18
100
AcDbEntity
  8
1
100
AcDbCircle
 10
300.0949875068254
 20
153.2190091957526
 30
0.0
 40
2.0
100
AcDbArc
 50
270.0
 51
0.0
  0
ARC
  5
142D
330
18
100
AcDbEntity
  8
1
100
AcDbCircle
 10
298.0949875068254
 20
219.2190091957526
 30
0.0
 40
1.0
100
AcDbArc
 50
0.0
 51
90.0
  0
LINE
  5
142E
330
18
100
AcDbEntity
  8
1
100
AcDbLine
 10
298.8020942880118
 20
219.9261159769391
 30
0.0
 11
301.5092010691985
 21
222.6332227581257
 31
0.0
  0
TEXT
  5
142F
330
18
100
AcDbEntity
  8
1
100
AcDbText
 10
270.7481275065418
 20
192.6927205359588
 30
0.0
 40
2.2
  1
DEFROST
  7
HG丸ｺﾞｼｯｸM-PRO
 72
     4
 11
278.2610141044799
 21
193.7190091957526
 31
0.0
100
AcDbText
  0
TEXT
  5
1430
330
18
100
AcDbEntity
  8
1
100
AcDbText
 10
270.6532821457169
 20
202.6813803297732
 30
0.0
 40
2.2
  1
COOL
  7
HG丸ｺﾞｼｯｸM-PRO
 72
     4
 11
275.1610141044798
 21
203.7190091957526
 31
0.0
100
AcDbText
  0
ARC
  5
1431
330
18
100
AcDbEntity
  8
1
100
AcDbCircle
 10
284.0191896300705
 20
208.2190091957526
 30
0.0
 40
2.0
100
AcDbArc
 50
32.64781743513718
 51
90.0
  0
ARC
  5
1432
330
18
100
AcDbEntity
  8
1
100
AcDbCircle
 10
295.8949875068253
 20
217.0190091957525
 30
0.0
 40
0.5
100
AcDbArc
 50
0.0
 51
90.0
  0
ARC
  5
1433
330
18
100
AcDbEntity
  8
1
100
AcDbCircle
 10
300.0949875068254
 20
221.2190091957526
 30
0.0
 40
2.0
100
AcDbArc
 50
0.0
 51
90.0
  0
LINE
  5
1434
330
18
100
AcDbEntity
  8
1
100
AcDbLine
 10
373.2812676648418
 20
219.2190091957526
 30
0.0
 11
373.2812676648418
 21
155.2190091957526
 31
0.0
  0
LINE
  5
1435
330
18
100
AcDbEntity
  8
1
100
AcDbLine
 10
363.2812676648418
 20
223.2190091957526
 30
0.0
 11
363.2812676648418
 21
151.2190091957526
 31
0.0
  0
LINE
  5
1436
330
18
100
AcDbEntity
  8
1
100
AcDbLine
 10
362.2812676648418
 20
151.2190091957526
 30
0.0
 11
362.2812676648418
 21
223.2190091957526
 31
0.0
  0
LINE
  5
1437
330
18
100
AcDbEntity
  8
1
100
AcDbLine
 10
359.2812676648418
 20
220.2190091957526
 30
0.0
 11
359.2812676648418
 21
154.2190091957526
 31
0.0
  0
LEADER
  5
1438
330
18
100
AcDbEntity
  8
2
100
AcDbLeader
  3
STANDARD
 74
     0
 40
3.399999999999999
 41
28.24285714285714
 76
     2
 10
368.2260173688075
 20
151.8856758624193
 30
0.0
 10
378.9324289534206
 20
141.9314926102776
 30
0.0
1001
ACAD
1000
DSTYLE
1002
{
1070
    40
1040
1.0
1002
}
  0
ARC
  5
143A
330
18
100
AcDbEntity
  8
1
100
AcDbCircle
 10
373.2812676648418
 20
149.7190091957526
 30
0.0
 40
5.500000000000014
100
AcDbArc
 50
90.0
 51
156.8001568170922
  0
LINE
  5
143B
330
18
100
AcDbEntity
  8
1
100
AcDbLine
 10
373.2812676648418
 20
155.2190091957526
 30
0.0
 11
363.7812676648418
 21
155.2190091957526
 31
0.0
  0
LINE
  5
143C
330
18
100
AcDbEntity
  8
1
100
AcDbLine
 10
359.2812676648418
 20
154.2190091957526
 30
0.0
 11
362.2812676648418
 21
151.2190091957526
 31
0.0
  0
LINE
  5
143D
330
18
100
AcDbEntity
  8
1
100
AcDbLine
 10
363.2812676648418
 20
151.2190091957526
 30
0.0
 11
362.2812676648418
 21
151.2190091957526
 31
0.0
  0
LINE
  5
143E
330
18
100
AcDbEntity
  8
1
100
AcDbLine
 10
367.2698855014843
 20
152.1687185110741
 30
0.0
 11
367.867374831321
 21
152.5066572227879
 31
0.0
  0
LINE
  5
143F
330
18
100
AcDbEntity
  8
1
100
AcDbLine
 10
366.9841690744963
 20
152.7928676883486
 30
0.0
 11
367.2698855014843
 21
152.1687185110741
 31
0.0
  0
LINE
  5
1440
330
18
100
AcDbEntity
  8
1
100
AcDbLine
 10
366.3708848365875
 20
152.4845196452615
 30
0.0
 11
366.9841690744963
 21
152.7928676883486
 31
0.0
  0
LINE
  5
1441
330
18
100
AcDbEntity
  8
1
100
AcDbLine
 10
366.1159990594005
 20
153.1218808558252
 30
0.0
 11
366.3708848365875
 21
152.4845196452615
 31
0.0
  0
LINE
  5
1442
330
18
100
AcDbEntity
  8
1
100
AcDbLine
 10
367.867374831321
 20
152.5066572227879
 30
0.0
 11
368.2260173688075
 21
151.8856758624192
 31
0.0
  0
LINE
  5
1443
330
18
100
AcDbEntity
  8
1
100
AcDbLine
 10
363.7812676648418
 20
155.2190091957526
 30
0.0
 11
363.7812676648418
 21
153.6896228298262
 31
0.0
  0
LINE
  5
1444
330
18
100
AcDbEntity
  8
1
100
AcDbLine
 10
365.2649377375578
 20
153.4929111321478
 30
0.0
 11
365.4883842677204
 21
152.8438597317937
 31
0.0
  0
LINE
  5
1445
330
18
100
AcDbEntity
  8
1
100
AcDbLine
 10
364.6244909638342
 20
153.2458807652484
 30
0.0
 11
365.2649377375578
 21
153.4929111321478
 31
0.0
  0
LINE
  5
1446
330
18
100
AcDbEntity
  8
1
100
AcDbLine
 10
364.4330172096329
 20
153.9050725989322
 30
0.0
 11
364.6244909638342
 21
153.2458807652484
 31
0.0
  0
LINE
  5
1447
330
18
100
AcDbEntity
  8
1
100
AcDbLine
 10
363.7812676648418
 20
153.6896228298262
 30
0.0
 11
364.4330172096329
 21
153.9050725989322
 31
0.0
  0
LINE
  5
1448
330
18
100
AcDbEntity
  8
1
100
AcDbLine
 10
365.4883842677204
 20
152.8438597317937
 30
0.0
 11
366.1159990594005
 21
153.1218808558252
 31
0.0
  0
CIRCLE
  5
1449
330
18
100
AcDbEntity
  8
1
100
AcDbCircle
 10
387.2812676648418
 20
170.2190091957526
 30
0.0
 40
1.3
  0
CIRCLE
  5
144A
330
18
100
AcDbEntity
  8
1
100
AcDbCircle
 10
387.2812676648418
 20
170.2190091957526
 30
0.0
 40
2.0
  0
LINE
  5
144B
330
18
100
AcDbEntity
  8
1
100
AcDbLine
 10
373.2812676648418
 20
219.2190091957526
 30
0.0
 11
363.7812676648418
 21
219.2190091957526
 31
0.0
  0
ARC
  5
144C
330
18
100
AcDbEntity
  8
1
100
AcDbCircle
 10
373.2812676648418
 20
224.7190091957526
 30
0.0
 40
5.500000000000014
100
AcDbArc
 50
203.1998431829077
 51
270.0
  0
LINE
  5
144D
330
18
100
AcDbEntity
  8
1
100
AcDbLine
 10
363.7812676648418
 20
219.2190091957526
 30
0.0
 11
363.7812676648418
 21
220.748395561679
 31
0.0
  0
LINE
  5
144E
330
18
100
AcDbEntity
  8
1
100
AcDbLine
 10
364.4330172096329
 20
220.532945792573
 30
0.0
 11
364.6244909638342
 21
221.1921376262568
 31
0.0
  0
LINE
  5
144F
330
18
100
AcDbEntity
  8
1
100
AcDbLine
 10
363.7812676648418
 20
220.748395561679
 30
0.0
 11
364.4330172096329
 21
220.532945792573
 31
0.0
  0
LINE
  5
1450
330
18
100
AcDbEntity
  8
1
100
AcDbLine
 10
362.2812676648418
 20
223.2190091957526
 30
0.0
 11
359.2812676648418
 21
220.2190091957526
 31
0.0
  0
LINE
  5
1451
330
18
100
AcDbEntity
  8
1
100
AcDbLine
 10
362.2812676648418
 20
223.2190091957526
 30
0.0
 11
363.2812676648418
 21
223.2190091957526
 31
0.0
  0
LINE
  5
1452
330
18
100
AcDbEntity
  8
1
100
AcDbLine
 10
366.3708848365875
 20
221.9534987462436
 30
0.0
 11
366.9841690744963
 21
221.6451507031565
 31
0.0
  0
LINE
  5
1453
330
18
100
AcDbEntity
  8
1
100
AcDbLine
 10
366.1159990594005
 20
221.31613753568
 30
0.0
 11
366.3708848365875
 21
221.9534987462436
 31
0.0
  0
LINE
  5
1454
330
18
100
AcDbEntity
  8
1
100
AcDbLine
 10
365.2649377375578
 20
220.9451072593574
 30
0.0
 11
365.4883842677204
 21
221.5941586597115
 31
0.0
  0
LINE
  5
1455
330
18
100
AcDbEntity
  8
1
100
AcDbLine
 10
364.6244909638342
 20
221.1921376262568
 30
0.0
 11
365.2649377375578
 21
220.9451072593574
 31
0.0
  0
LINE
  5
1456
330
18
100
AcDbEntity
  8
1
100
AcDbLine
 10
365.4883842677204
 20
221.5941586597115
 30
0.0
 11
366.1159990594005
 21
221.31613753568
 31
0.0
  0
LINE
  5
1457
330
18
100
AcDbEntity
  8
1
100
AcDbLine
 10
367.2698855014843
 20
222.269299880431
 30
0.0
 11
367.867374831321
 21
221.9313611687173
 31
0.0
  0
LINE
  5
1458
330
18
100
AcDbEntity
  8
1
100
AcDbLine
 10
366.9841690744963
 20
221.6451507031565
 30
0.0
 11
367.2698855014843
 21
222.2692998804311
 31
0.0
  0
LINE
  5
1459
330
18
100
AcDbEntity
  8
1
100
AcDbLine
 10
367.867374831321
 20
221.9313611687173
 30
0.0
 11
368.2260173688075
 21
222.5523425290859
 31
0.0
  0
LINE
  5
145B
330
18
100
AcDbEntity
  8
1
100
AcDbLine
 10
424.2812676648417
 20
219.2190091957526
 30
0.0
 11
424.2812676648417
 21
155.2190091957526
 31
0.0
  0
LEADER
  5
145C
330
18
100
AcDbEntity
  8
2
100
AcDbLeader
  3
STANDARD
 74
     0
 40
8.038095238095237
 41
29.0
 76
     2
 10
438.2812673956598
 20
167.0190091957526
 30
0.0
 10
448.6889299794706
 20
179.4266717795635
 30
0.0
1001
ACAD
1000
DSTYLE
1002
{
1070
    40
1040
1.0
1002
}
  0
LINE
  5
145D
330
18
100
AcDbEntity
  8
1
100
AcDbLine
 10
436.2812673956597
 20
173.5190091957526
 30
0.0
 11
424.2812676648417
 21
173.5190091957526
 31
0.0
  0
LINE
  5
145E
330
18
100
AcDbEntity
  8
1
100
AcDbLine
 10
428.2812673956597
 20
164.0190091957526
 30
0.0
 11
424.2812676648417
 21
164.0190091957526
 31
0.0
  0
LINE
  5
145F
330
18
100
AcDbEntity
  8
1
100
AcDbLine
 10
428.2812673956597
 20
170.0190091957526
 30
0.0
 11
424.2812676648417
 21
170.0190091957526
 31
0.0
  0
LINE
  5
1460
330
18
100
AcDbEntity
  8
1
100
AcDbLine
 10
436.2812673956597
 20
160.5190091957526
 30
0.0
 11
424.2812676648417
 21
160.5190091957526
 31
0.0
  0
LINE
  5
1461
330
18
100
AcDbEntity
  8
1
100
AcDbLine
 10
430.7812673956598
 20
162.0190091957526
 30
0.0
 11
426.7812673956598
 21
160.5190091957526
 31
0.0
  0
LINE
  5
1462
330
18
100
AcDbEntity
  8
1
100
AcDbLine
 10
430.7812673956598
 20
172.0190091957526
 30
0.0
 11
426.7812673956598
 21
173.5190091957526
 31
0.0
  0
CIRCLE
  5
1463
330
18
100
AcDbEntity
  8
1
100
AcDbCircle
 10
417.2812676648418
 20
170.2190091957526
 30
0.0
 40
1.3
  0
CIRCLE
  5
1464
330
18
100
AcDbEntity
  8
1
100
AcDbCircle
 10
417.2812676648418
 20
170.2190091957526
 30
0.0
 40
2.0
  0
LINE
  5
1465
330
18
100
AcDbEntity
  8
1
100
AcDbLine
 10
424.2812676648417
 20
173.5190091957526
 30
0.0
 11
424.2812676648417
 21
160.5190091957526
 31
0.0
  0
LINE
  5
1466
330
18
100
AcDbEntity
  8
1
100
AcDbLine
 10
438.2812673956598
 20
162.5190091957526
 30
0.0
 11
438.2812673956598
 21
171.5190091957526
 31
0.0
  0
LINE
  5
1467
330
18
100
AcDbEntity
  8
1
100
AcDbLine
 10
431.2812673956598
 20
162.5190091957526
 30
0.0
 11
431.2812673956598
 21
171.5190091957526
 31
0.0
  0
LINE
  5
1468
330
18
100
AcDbEntity
  8
1
100
AcDbLine
 10
430.7812673956598
 20
162.0190091957526
 30
0.0
 11
430.7812673956598
 21
172.0190091957526
 31
0.0
  0
ARC
  5
1469
330
18
100
AcDbEntity
  8
1
100
AcDbCircle
 10
436.2812673956597
 20
162.5190091957526
 30
0.0
 40
2.0
100
AcDbArc
 50
270.0
 51
0.0
  0
INSERT
  5
146A
330
18
100
AcDbEntity
  8
1
 48
0.5
100
AcDbBlockReference
  2
M3ｾﾑｽSIDE
 10
431.2812673956598
 20
167.0190091957526
 30
0.0
 41
-1.0
 50
180.0
  0
LINE
  5
146B
330
18
100
AcDbEntity
  8
1
100
AcDbLine
 10
431.2812673956598
 20
162.5190091957526
 30
0.0
 11
430.7812673956598
 21
162.5190091957526
 31
0.0
  0
LINE
  5
146C
330
18
100
AcDbEntity
  8
1
100
AcDbLine
 10
431.2812673956598
 20
163.0190091957526
 30
0.0
 11
430.7812673956598
 21
163.0190091957526
 31
0.0
  0
LINE
  5
146D
330
18
100
AcDbEntity
  8
1
100
AcDbLine
 10
431.2812673956598
 20
171.0190091957526
 30
0.0
 11
430.7812673956598
 21
171.0190091957526
 31
0.0
  0
LINE
  5
146E
330
18
100
AcDbEntity
  8
1
100
AcDbLine
 10
428.2812673956597
 20
164.0190091957526
 30
0.0
 11
428.2812673956597
 21
170.0190091957526
 31
0.0
  0
ARC
  5
146F
330
18
100
AcDbEntity
  8
1
100
AcDbCircle
 10
436.2812673956597
 20
171.5190091957526
 30
0.0
 40
2.0
100
AcDbArc
 50
0.0
 51
90.0
  0
LINE
  5
1470
330
18
100
AcDbEntity
  8
1
100
AcDbLine
 10
431.2812673956598
 20
171.5190091957526
 30
0.0
 11
430.7812673956598
 21
171.5190091957526
 31
0.0
  0
DIMENSION
  5
1471
330
18
100
AcDbEntity
  8
2
100
AcDbDimension
  2
*D9
 10
499.2812676648418
 20
356.9112945665241
 30
0.0
 11
431.2812676648418
 21
358.6612945665241
 31
0.0
 70
    32
 71
     5
 42
136.0
  3
STANDARD
100
AcDbAlignedDimension
 13
363.2812676648418
 23
339.8267241387026
 33
0.0
 14
499.2812676648418
 24
339.8267241387026
 34
0.0
100
AcDbRotatedDimension
1001
ACAD
1000
DSTYLE
1002
{
1070
    40
1040
1.0
1002
}
  0
TEXT
  5
1472
330
18
100
AcDbEntity
  8
1
 48
0.5
100
AcDbText
 10
393.6848209643342
 20
301.6368764229666
 30
0.0
 40
2.0
  1
AC100V～AC240V
  7
ＭＳゴシック
 72
     4
 11
402.7812676648418
 21
302.6267241387027
 31
0.0
100
AcDbText
  0
TEXT
  5
1473
330
18
100
AcDbEntity
  8
1
100
AcDbText
 10
377.2398527600331
 20
330.7275164610156
 30
0.0
 40
3.0
  1
PCM325016-**
 41
1.5
  7
ＭＳゴシック
 72
     1
 11
394.7829999681549
 21
332.2275164610156
 31
0.0
100
AcDbText
 73
     2
  0
LWPOLYLINE
  5
1474
330
18
100
AcDbEntity
  8
1
370
     5
100
AcDbPolyline
 90
        4
 70
     1
 43
0.0
 10
375.782999968155
 20
329.2275164610156
 10
413.7829999681549
 20
329.2275164610156
 10
413.7829999681549
 20
335.2275164610156
 10
375.782999968155
 20
335.2275164610156
  0
CIRCLE
  5
1475
330
18
100
AcDbEntity
  8
1
100
AcDbCircle
 10
407.5312676648418
 20
287.6267241387026
 30
0.0
 40
3.5
  0
LINE
  5
1476
330
18
100
AcDbEntity
  8
1
100
AcDbLine
 10
410.5312676648418
 20
292.1267241387026
 30
0.0
 11
404.5312676648418
 21
292.1267241387026
 31
0.0
  0
LINE
  5
1477
330
18
100
AcDbEntity
  8
1
100
AcDbLine
 10
409.5312676648418
 20
288.1267241387026
 30
0.0
 11
408.0312676648418
 21
288.1267241387026
 31
0.0
  0
LINE
  5
1478
330
18
100
AcDbEntity
  8
1
100
AcDbLine
 10
409.5312676648418
 20
287.1267241387026
 30
0.0
 11
408.0312676648418
 21
287.1267241387026
 31
0.0
  0
LINE
  5
1479
330
18
100
AcDbEntity
  8
1
100
AcDbLine
 10
411.5312676648418
 20
293.1267241387026
 30
0.0
 11
403.5312676648418
 21
293.1267241387026
 31
0.0
  0
LINE
  5
147A
330
18
100
AcDbEntity
  8
1
100
AcDbLine
 10
411.5312676648418
 20
294.1267241387026
 30
0.0
 11
402.0312676648418
 21
294.1267241387026
 31
0.0
  0
LINE
  5
147B
330
18
100
AcDbEntity
  8
1
100
AcDbLine
 10
410.5312676648418
 20
283.1267241387026
 30
0.0
 11
404.5312676648418
 21
283.1267241387026
 31
0.0
  0
LINE
  5
147C
330
18
100
AcDbEntity
  8
1
100
AcDbLine
 10
411.5312676648418
 20
282.1267241387026
 30
0.0
 11
403.5312676648418
 21
282.1267241387026
 31
0.0
  0
LINE
  5
147D
330
18
100
AcDbEntity
  8
1
100
AcDbLine
 10
411.5312676648418
 20
281.1267241387026
 30
0.0
 11
402.0312676648418
 21
281.1267241387026
 31
0.0
  0
LWPOLYLINE
  5
147E
330
18
100
AcDbEntity
  8
1
100
AcDbPolyline
 90
        4
 70
     1
 43
0.0
 10
363.2812676648418
 20
275.8267241387026
 10
363.2812676648418
 20
339.8267241387026
 10
499.2812676648418
 20
339.8267241387026
 10
499.2812676648418
 20
275.8267241387026
  0
LINE
  5
147F
330
18
100
AcDbEntity
  8
1
100
AcDbLine
 10
488.0312676648418
 20
294.6267241387026
 30
0.0
 11
374.5312676648418
 21
294.6267241387026
 31
0.0
  0
LINE
  5
1480
330
18
100
AcDbEntity
  8
1
100
AcDbLine
 10
374.5312676648418
 20
280.6267241387026
 30
0.0
 11
488.0312676648418
 21
280.6267241387026
 31
0.0
  0
LINE
  5
1481
330
18
100
AcDbEntity
  8
1
100
AcDbLine
 10
501.2812676648418
 20
271.8267241387026
 30
0.0
 11
361.2812676648418
 21
271.8267241387026
 31
0.0
  0
LINE
  5
1482
330
18
100
AcDbEntity
  8
1
100
AcDbLine
 10
361.2812676648418
 20
343.8267241387026
 30
0.0
 11
501.2812676648418
 21
343.8267241387026
 31
0.0
  0
LWPOLYLINE
  5
1483
330
18
100
AcDbEntity
  8
1
100
AcDbPolyline
 90
        4
 70
     1
 43
0.0
 10
379.0312676648418
 20
295.6267241387026
 10
483.5312676648417
 20
295.6267241387026
 10
483.5312676648417
 20
307.6267241387026
 10
379.0312676648418
 20
307.6267241387026
  0
DIMENSION
  5
1484
330
18
100
AcDbEntity
  8
2
100
AcDbDimension
  2
*D10
 10
298.0949875068254
 20
355.9112945665241
 30
0.0
 11
230.0949875068254
 21
357.6612945665241
 31
0.0
 70
    32
 71
     5
 42
136.0
  3
STANDARD
100
AcDbAlignedDimension
 13
162.0949875068254
 23
333.3267241387026
 33
0.0
 14
298.0949875068254
 24
333.3267241387026
 34
0.0
100
AcDbRotatedDimension
1001
ACAD
1000
DSTYLE
1002
{
1070
    40
1040
1.0
1002
}
  0
LINE
  5
1485
330
18
100
AcDbEntity
  8
1
100
AcDbLine
 10
259.3449875068254
 20
333.5267241387025
 30
0.0
 11
267.3449875068254
 21
333.5267241387025
 31
0.0
  0
LINE
  5
1486
330
18
100
AcDbEntity
  8
1
100
AcDbLine
 10
259.3449875068254
 20
340.5267241387026
 30
0.0
 11
267.3449875068254
 21
340.5267241387026
 31
0.0
  0
LINE
  5
1487
330
18
100
AcDbEntity
  8
1
100
AcDbLine
 10
259.3449875068254
 20
339.0267241387026
 30
0.0
 11
267.3449875068254
 21
339.0267241387026
 31
0.0
  0
LINE
  5
1488
330
18
100
AcDbEntity
  8
1
100
AcDbLine
 10
259.3449875068254
 20
339.5267241387025
 30
0.0
 11
267.3449875068254
 21
339.5267241387025
 31
0.0
  0
LINE
  5
1489
330
18
100
AcDbEntity
  8
1
100
AcDbLine
 10
259.8449875068254
 20
342.5267241387026
 30
0.0
 11
266.8449875068254
 21
342.5267241387026
 31
0.0
  0
LINE
  5
148A
330
18
100
AcDbEntity
  8
1
100
AcDbLine
 10
259.3449875068254
 20
342.0267241387026
 30
0.0
 11
267.3449875068254
 21
342.0267241387026
 31
0.0
  0
LINE
  5
148B
330
18
100
AcDbEntity
  8
1
100
AcDbLine
 10
261.8449875068254
 20
345.5267241387026
 30
0.0
 11
264.8449875068254
 21
345.5267241387026
 31
0.0
  0
LINE
  5
148C
330
18
100
AcDbEntity
  8
1
100
AcDbLine
 10
270.5949875068254
 20
293.3267241387026
 30
0.0
 11
261.5949875068254
 21
293.3267241387026
 31
0.0
  0
LINE
  5
148D
330
18
100
AcDbEntity
  8
1
100
AcDbLine
 10
299.0949875068254
 20
268.3267241387026
 30
0.0
 11
161.0949875068254
 21
268.3267241387026
 31
0.0
  0
LWPOLYLINE
  5
148E
330
18
100
AcDbEntity
  8
1
100
AcDbPolyline
 90
        6
 70
     0
 43
0.0
 10
270.5949875068254
 20
282.3267241387025
 10
298.0949875068254
 20
282.3267241387025
 10
298.0949875068254
 20
333.3267241387026
 10
162.0949875068254
 20
333.3267241387026
 10
162.0949875068254
 20
282.3267241387026
 10
189.5949875068254
 20
282.3267241387026
  0
LINE
  5
148F
330
18
100
AcDbEntity
  8
1
100
AcDbLine
 10
302.0949875068254
 20
271.3267241387026
 30
0.0
 11
158.0949875068254
 21
271.3267241387026
 31
0.0
  0
LINE
  5
1490
330
18
100
AcDbEntity
  8
1
100
AcDbLine
 10
302.0949875068254
 20
272.3267241387026
 30
0.0
 11
158.0949875068254
 21
272.3267241387026
 31
0.0
  0
LINE
  5
1491
330
18
100
AcDbEntity
  8
1
100
AcDbLine
 10
180.5949875068254
 20
282.3267241387026
 30
0.0
 11
162.2949875068254
 21
282.3267241387026
 31
0.0
  0
LINE
  5
1492
330
18
100
AcDbEntity
  8
1
100
AcDbLine
 10
158.0949875068254
 20
271.3267241387026
 30
0.0
 11
161.0949875068254
 21
268.3267241387026
 31
0.0
  0
LINE
  5
1493
330
18
100
AcDbEntity
  8
1
100
AcDbLine
 10
158.0949875068254
 20
272.3267241387026
 30
0.0
 11
158.0949875068254
 21
271.3267241387026
 31
0.0
  0
LINE
  5
1494
330
18
100
AcDbEntity
  8
1
100
AcDbLine
 10
162.0949875068254
 20
272.3267241387026
 30
0.0
 11
162.0949875068254
 21
282.3267241387026
 31
0.0
  0
LINE
  5
1495
330
18
100
AcDbEntity
  8
1
100
AcDbLine
 10
188.5949875068254
 20
272.8267241387026
 30
0.0
 11
188.5949875068254
 21
282.3267241387026
 31
0.0
  0
LINE
  5
1496
330
18
100
AcDbEntity
  8
1
100
AcDbLine
 10
181.5949875068254
 20
272.8267241387026
 30
0.0
 11
181.5949875068254
 21
282.3267241387026
 31
0.0
  0
LINE
  5
1497
330
18
100
AcDbEntity
  8
1
100
AcDbLine
 10
180.5949875068254
 20
272.3267241387026
 30
0.0
 11
180.5949875068254
 21
282.3267241387026
 31
0.0
  0
LINE
  5
1498
330
18
100
AcDbEntity
  8
1
100
AcDbLine
 10
188.5949875068254
 20
276.8267241387026
 30
0.0
 11
181.5949875068254
 21
276.8267241387026
 31
0.0
  0
LINE
  5
1499
330
18
100
AcDbEntity
  8
1
100
AcDbLine
 10
188.5949875068254
 20
275.8267241387026
 30
0.0
 11
181.5949875068254
 21
275.8267241387026
 31
0.0
  0
LINE
  5
149A
330
18
100
AcDbEntity
  8
1
100
AcDbLine
 10
188.5949875068254
 20
282.3267241387026
 30
0.0
 11
181.5949875068254
 21
282.3267241387026
 31
0.0
  0
LINE
  5
149B
330
18
100
AcDbEntity
  8
1
100
AcDbLine
 10
188.5949875068254
 20
274.8267241387026
 30
0.0
 11
181.5949875068254
 21
274.8267241387026
 31
0.0
  0
LINE
  5
149C
330
18
100
AcDbEntity
  8
1
100
AcDbLine
 10
188.5949875068254
 20
273.8267241387026
 30
0.0
 11
181.5949875068254
 21
273.8267241387026
 31
0.0
  0
LINE
  5
149D
330
18
100
AcDbEntity
  8
1
100
AcDbLine
 10
188.5949875068254
 20
272.8267241387026
 30
0.0
 11
181.5949875068254
 21
272.8267241387026
 31
0.0
  0
LINE
  5
149E
330
18
100
AcDbEntity
  8
1
100
AcDbLine
 10
261.5949875068254
 20
282.3267241387026
 30
0.0
 11
261.5949875068254
 21
293.3267241387026
 31
0.0
  0
LINE
  5
149F
330
18
100
AcDbEntity
  8
1
100
AcDbLine
 10
198.5949875068254
 20
282.3267241387026
 30
0.0
 11
198.5949875068254
 21
293.3267241387026
 31
0.0
  0
LINE
  5
14A0
330
18
100
AcDbEntity
  8
1
100
AcDbLine
 10
189.5949875068254
 20
272.3267241387026
 30
0.0
 11
189.5949875068254
 21
293.3267241387026
 31
0.0
  0
LINE
  5
14A1
330
18
100
AcDbEntity
  8
1
100
AcDbLine
 10
261.5949875068254
 20
282.3267241387025
 30
0.0
 11
198.5949875068254
 21
282.3267241387026
 31
0.0
  0
LWPOLYLINE
  5
14A2
330
18
100
AcDbEntity
  8
1
100
AcDbPolyline
 90
        2
 70
     0
 43
0.0
 10
199.0949875068254
 20
282.3267241387026
 10
261.0949875068254
 20
282.3267241387025
  0
LINE
  5
14A3
330
18
100
AcDbEntity
  8
1
100
AcDbLine
 10
198.5949875068254
 20
293.3267241387026
 30
0.0
 11
189.5949875068254
 21
293.3267241387026
 31
0.0
  0
LINE
  5
14A4
330
18
100
AcDbEntity
  8
1
  6
ByBlock
100
AcDbLine
 10
192.5949875068254
 20
288.8267241387026
 30
0.0
 11
193.0949875068254
 21
288.8267241387026
 31
0.0
  0
LINE
  5
14A5
330
18
100
AcDbEntity
  8
1
  6
ByBlock
100
AcDbLine
 10
193.0949875068254
 20
289.8267241387026
 30
0.0
 11
192.5949875068254
 21
289.8267241387026
 31
0.0
  0
LINE
  5
14A6
330
18
100
AcDbEntity
  8
1
  6
ByBlock
100
AcDbLine
 10
192.5949875068254
 20
289.8267241387026
 30
0.0
 11
192.5949875068254
 21
288.8267241387026
 31
0.0
  0
ARC
  5
14A7
330
18
100
AcDbEntity
  8
1
  6
ByBlock
100
AcDbCircle
 10
195.0949875068254
 20
290.3267241387026
 30
0.0
 40
0.5
100
AcDbArc
 50
180.0
 51
270.0
  0
LINE
  5
14A8
330
18
100
AcDbEntity
  8
1
  6
ByBlock
100
AcDbLine
 10
193.5949875068254
 20
290.8267241387026
 30
0.0
 11
193.5949875068254
 21
290.3267241387026
 31
0.0
  0
LINE
  5
14A9
330
18
100
AcDbEntity
  8
1
  6
ByBlock
100
AcDbLine
 10
194.5949875068254
 20
290.3267241387026
 30
0.0
 11
194.5949875068254
 21
290.8267241387026
 31
0.0
  0
LINE
  5
14AA
330
18
100
AcDbEntity
  8
1
  6
ByBlock
100
AcDbLine
 10
194.5949875068254
 20
290.8267241387026
 30
0.0
 11
193.5949875068254
 21
290.8267241387026
 31
0.0
  0
LINE
  5
14AB
330
18
100
AcDbEntity
  8
1
  6
ByBlock
100
AcDbLine
 10
193.5949875068254
 20
288.3267241387026
 30
0.0
 11
193.5949875068254
 21
287.8267241387026
 31
0.0
  0
LINE
  5
14AC
330
18
100
AcDbEntity
  8
1
  6
ByBlock
100
AcDbLine
 10
195.5949875068254
 20
289.8267241387026
 30
0.0
 11
195.0949875068254
 21
289.8267241387026
 31
0.0
  0
ARC
  5
14AD
330
18
100
AcDbEntity
  8
1
  6
ByBlock
100
AcDbCircle
 10
195.0949875068254
 20
288.3267241387026
 30
0.0
 40
0.5
100
AcDbArc
 50
90.0
 51
180.0
  0
LINE
  5
14AE
330
18
100
AcDbEntity
  8
1
  6
ByBlock
100
AcDbLine
 10
195.0949875068254
 20
288.8267241387026
 30
0.0
 11
195.5949875068254
 21
288.8267241387026
 31
0.0
  0
LINE
  5
14AF
330
18
100
AcDbEntity
  8
1
  6
ByBlock
100
AcDbLine
 10
194.5949875068254
 20
287.8267241387026
 30
0.0
 11
194.5949875068254
 21
288.3267241387026
 31
0.0
  0
LINE
  5
14B0
330
18
100
AcDbEntity
  8
1
  6
ByBlock
100
AcDbLine
 10
195.5949875068254
 20
288.8267241387026
 30
0.0
 11
195.5949875068254
 21
289.8267241387026
 31
0.0
  0
LINE
  5
14B1
330
18
100
AcDbEntity
  8
1
  6
ByBlock
100
AcDbLine
 10
193.5949875068254
 20
287.8267241387026
 30
0.0
 11
194.5949875068254
 21
287.8267241387026
 31
0.0
  0
ARC
  5
14B2
330
18
100
AcDbEntity
  8
1
  6
ByBlock
100
AcDbCircle
 10
193.0949875068254
 20
290.3267241387026
 30
0.0
 40
0.5
100
AcDbArc
 50
270.0
 51
0.0
  0
CIRCLE
  5
14B3
330
18
100
AcDbEntity
  8
1
  6
ByBlock
100
AcDbCircle
 10
194.0949875068254
 20
289.3267241387026
 30
0.0
 40
2.799999999999999
  0
ARC
  5
14B4
330
18
100
AcDbEntity
  8
1
  6
ByBlock
100
AcDbCircle
 10
193.0949875068254
 20
288.3267241387026
 30
0.0
 40
0.5
100
AcDbArc
 50
0.0
 51
90.0
  0
LINE
  5
14B5
330
18
100
AcDbEntity
  8
1
100
AcDbLine
 10
183.8449875068254
 20
342.5267241387026
 30
0.0
 11
190.8449875068254
 21
342.5267241387026
 31
0.0
  0
LINE
  5
14B6
330
18
100
AcDbEntity
  8
1
100
AcDbLine
 10
183.3449875068254
 20
333.5267241387025
 30
0.0
 11
191.3449875068254
 21
333.5267241387025
 31
0.0
  0
LINE
  5
14B7
330
18
100
AcDbEntity
  8
1
100
AcDbLine
 10
183.3449875068254
 20
340.5267241387026
 30
0.0
 11
191.3449875068254
 21
340.5267241387026
 31
0.0
  0
LINE
  5
14B8
330
18
100
AcDbEntity
  8
1
100
AcDbLine
 10
183.3449875068254
 20
339.5267241387025
 30
0.0
 11
191.3449875068254
 21
339.5267241387025
 31
0.0
  0
LINE
  5
14B9
330
18
100
AcDbEntity
  8
1
100
AcDbLine
 10
183.3449875068254
 20
339.0267241387026
 30
0.0
 11
191.3449875068254
 21
339.0267241387026
 31
0.0
  0
LINE
  5
14BA
330
18
100
AcDbEntity
  8
1
100
AcDbLine
 10
183.3449875068254
 20
342.0267241387026
 30
0.0
 11
191.3449875068254
 21
342.0267241387026
 31
0.0
  0
ARC
  5
14BB
330
18
100
AcDbEntity
  8
1
100
AcDbCircle
 10
188.8449875068254
 20
343.5267241387025
 30
0.0
 40
2.0
100
AcDbArc
 50
0.0
 51
90.0
  0
ARC
  5
14BC
330
18
100
AcDbEntity
  8
1
100
AcDbCircle
 10
185.8449875068254
 20
343.5267241387025
 30
0.0
 40
2.0
100
AcDbArc
 50
90.0
 51
180.0
  0
LINE
  5
14BD
330
18
100
AcDbEntity
  8
1
100
AcDbLine
 10
181.8449875068254
 20
347.5267241387026
 30
0.0
 11
181.8449875068254
 21
333.5267241387025
 31
0.0
  0
LINE
  5
14BE
330
18
100
AcDbEntity
  8
1
100
AcDbLine
 10
183.3449875068254
 20
347.5267241387026
 30
0.0
 11
183.3449875068254
 21
333.5267241387025
 31
0.0
  0
ARC
  5
14BF
330
18
100
AcDbEntity
  8
1
  6
ByBlock
100
AcDbCircle
 10
178.9449875068251
 20
342.0267241387026
 30
0.0
 40
1.5
100
AcDbArc
 50
0.0
 51
90.0
  0
LINE
  5
14C0
330
18
100
AcDbEntity
  8
1
100
AcDbLine
 10
173.8449875068254
 20
333.5267241387025
 30
0.0
 11
181.8449875068254
 21
333.5267241387025
 31
0.0
  0
LINE
  5
14C1
330
18
100
AcDbEntity
  8
1
  6
ByBlock
100
AcDbLine
 10
175.2449875068252
 20
341.3267241387025
 30
0.0
 11
180.4449875068255
 21
341.3267241387025
 31
0.0
  0
LINE
  5
14C2
330
18
100
AcDbEntity
  8
1
  6
ByBlock
100
AcDbLine
 10
175.7449875068252
 20
340.5267241387026
 30
0.0
 11
179.9449875068253
 21
340.5267241387026
 31
0.0
  0
LINE
  5
14C3
330
18
100
AcDbEntity
  8
1
100
AcDbLine
 10
173.8449875068254
 20
339.5267241387025
 30
0.0
 11
181.8449875068254
 21
339.5267241387025
 31
0.0
  0
LINE
  5
14C4
330
18
100
AcDbEntity
  8
1
100
AcDbLine
 10
173.8449875068254
 20
340.5267241387026
 30
0.0
 11
181.8449875068254
 21
340.5267241387026
 31
0.0
  0
LINE
  5
14C5
330
18
100
AcDbEntity
  8
1
100
AcDbLine
 10
173.8449875068254
 20
339.0267241387026
 30
0.0
 11
181.8449875068254
 21
339.0267241387026
 31
0.0
  0
ARC
  5
14C6
330
18
100
AcDbEntity
  8
1
  6
ByBlock
100
AcDbCircle
 10
176.7449875068252
 20
342.0267241387026
 30
0.0
 40
1.5
100
AcDbArc
 50
90.0
 51
180.0
  0
ARC
  5
14C7
330
18
100
AcDbEntity
  8
1
  6
ByBlock
100
AcDbCircle
 10
175.7449875068252
 20
341.0267241387026
 30
0.0
 40
0.5
100
AcDbArc
 50
180.0
 51
270.0
  0
LINE
  5
14C8
330
18
100
AcDbEntity
  8
1
  6
ByBlock
100
AcDbLine
 10
175.2449875068252
 20
341.0267241387026
 30
0.0
 11
175.2449875068252
 21
342.0267241387026
 31
0.0
  0
LINE
  5
14C9
330
18
100
AcDbEntity
  8
1
100
AcDbLine
 10
174.8449875068254
 20
340.5267241387026
 30
0.0
 11
174.8449875068254
 21
339.5267241387025
 31
0.0
  0
LINE
  5
14CA
330
18
100
AcDbEntity
  8
1
  6
ByBlock
100
AcDbLine
 10
176.7449875068252
 20
343.5267241387025
 30
0.0
 11
178.9449875068253
 21
343.5267241387025
 31
0.0
  0
LINE
  5
14CB
330
18
100
AcDbEntity
  8
1
  6
ByBlock
100
AcDbLine
 10
178.2449875068252
 20
340.5267241387026
 30
0.0
 11
177.4449875068253
 21
341.3267241387025
 31
0.0
  0
LINE
  5
14CC
330
18
100
AcDbEntity
  8
1
100
AcDbLine
 10
173.8449875068254
 20
340.5267241387026
 30
0.0
 11
173.8449875068254
 21
333.3267241387026
 31
0.0
  0
LINE
  5
14CD
330
18
100
AcDbEntity
  8
1
100
AcDbLine
 10
184.3449875068254
 20
340.5267241387026
 30
0.0
 11
184.3449875068254
 21
339.5267241387025
 31
0.0
  0
LINE
  5
14CE
330
18
100
AcDbEntity
  8
1
100
AcDbLine
 10
183.8449875068254
 20
343.5267241387025
 30
0.0
 11
183.8449875068254
 21
342.0267241387026
 31
0.0
  0
LINE
  5
14CF
330
18
100
AcDbEntity
  8
1
  6
ByBlock
100
AcDbLine
 10
180.4449875068253
 20
341.0267241387026
 30
0.0
 11
180.4449875068253
 21
342.0267241387026
 31
0.0
  0
ARC
  5
14D0
330
18
100
AcDbEntity
  8
1
  6
ByBlock
100
AcDbCircle
 10
179.9449875068251
 20
341.0267241387026
 30
0.0
 40
0.5
100
AcDbArc
 50
270.0
 51
0.0
  0
LINE
  5
14D1
330
18
100
AcDbEntity
  8
1
100
AcDbLine
 10
180.8449875068254
 20
340.5267241387026
 30
0.0
 11
180.8449875068254
 21
339.5267241387025
 31
0.0
  0
LINE
  5
14D2
330
18
100
AcDbEntity
  8
1
100
AcDbLine
 10
181.8449875068254
 20
347.5267241387026
 30
0.0
 11
183.3449875068254
 21
347.5267241387026
 31
0.0
  0
LINE
  5
14D3
330
18
100
AcDbEntity
  8
1
100
AcDbLine
 10
185.8449875068254
 20
345.5267241387026
 30
0.0
 11
188.8449875068254
 21
345.5267241387026
 31
0.0
  0
ARC
  5
14D4
330
18
100
AcDbEntity
  8
1
100
AcDbCircle
 10
187.3449875068254
 20
345.5267241387026
 30
0.0
 40
0.5
100
AcDbArc
 50
180.0
 51
0.0
  0
ARC
  5
14D5
330
18
100
AcDbEntity
  8
1
100
AcDbCircle
 10
225.3449875068254
 20
345.5267241387026
 30
0.0
 40
0.5
100
AcDbArc
 50
180.0
 51
0.0
  0
LINE
  5
14D6
330
18
100
AcDbEntity
  8
1
100
AcDbLine
 10
223.8449875068254
 20
345.5267241387026
 30
0.0
 11
226.8449875068254
 21
345.5267241387026
 31
0.0
  0
LINE
  5
14D7
330
18
100
AcDbEntity
  8
1
100
AcDbLine
 10
221.3449875068254
 20
333.5267241387025
 30
0.0
 11
229.3449875068254
 21
333.5267241387025
 31
0.0
  0
LINE
  5
14D8
330
18
100
AcDbEntity
  8
1
100
AcDbLine
 10
221.8449875068254
 20
342.5267241387026
 30
0.0
 11
228.8449875068254
 21
342.5267241387026
 31
0.0
  0
LINE
  5
14D9
330
18
100
AcDbEntity
  8
1
100
AcDbLine
 10
221.3449875068254
 20
339.0267241387026
 30
0.0
 11
229.3449875068254
 21
339.0267241387026
 31
0.0
  0
LINE
  5
14DA
330
18
100
AcDbEntity
  8
1
100
AcDbLine
 10
221.3449875068254
 20
339.5267241387025
 30
0.0
 11
229.3449875068254
 21
339.5267241387025
 31
0.0
  0
LINE
  5
14DB
330
18
100
AcDbEntity
  8
1
100
AcDbLine
 10
221.3449875068254
 20
340.5267241387026
 30
0.0
 11
229.3449875068254
 21
340.5267241387026
 31
0.0
  0
LINE
  5
14DC
330
18
100
AcDbEntity
  8
1
100
AcDbLine
 10
221.3449875068254
 20
342.0267241387026
 30
0.0
 11
229.3449875068254
 21
342.0267241387026
 31
0.0
  0
LINE
  5
14DD
330
18
100
AcDbEntity
  8
1
100
AcDbLine
 10
204.8449875068254
 20
345.5267241387026
 30
0.0
 11
207.8449875068254
 21
345.5267241387026
 31
0.0
  0
LINE
  5
14DE
330
18
100
AcDbEntity
  8
1
100
AcDbLine
 10
202.3449875068254
 20
333.5267241387025
 30
0.0
 11
210.3449875068254
 21
333.5267241387025
 31
0.0
  0
LINE
  5
14DF
330
18
100
AcDbEntity
  8
1
100
AcDbLine
 10
202.3449875068254
 20
339.0267241387026
 30
0.0
 11
210.3449875068254
 21
339.0267241387026
 31
0.0
  0
LINE
  5
14E0
330
18
100
AcDbEntity
  8
1
100
AcDbLine
 10
202.3449875068254
 20
339.5267241387025
 30
0.0
 11
210.3449875068254
 21
339.5267241387025
 31
0.0
  0
LINE
  5
14E1
330
18
100
AcDbEntity
  8
1
100
AcDbLine
 10
202.3449875068254
 20
340.5267241387026
 30
0.0
 11
210.3449875068254
 21
340.5267241387026
 31
0.0
  0
LINE
  5
14E2
330
18
100
AcDbEntity
  8
1
100
AcDbLine
 10
202.3449875068254
 20
342.0267241387026
 30
0.0
 11
210.3449875068254
 21
342.0267241387026
 31
0.0
  0
LINE
  5
14E3
330
18
100
AcDbEntity
  8
1
100
AcDbLine
 10
202.8449875068254
 20
342.5267241387026
 30
0.0
 11
209.8449875068254
 21
342.5267241387026
 31
0.0
  0
LINE
  5
14E4
330
18
100
AcDbEntity
  8
1
100
AcDbLine
 10
202.3449875068254
 20
347.5267241387026
 30
0.0
 11
202.3449875068254
 21
333.5267241387025
 31
0.0
  0
ARC
  5
14E5
330
18
100
AcDbEntity
  8
1
100
AcDbCircle
 10
198.3449875068254
 20
343.5267241387025
 30
0.0
 40
2.0
100
AcDbArc
 50
0.0
 51
90.0
  0
ARC
  5
14E6
330
18
100
AcDbEntity
  8
1
100
AcDbCircle
 10
195.3449875068254
 20
343.5267241387025
 30
0.0
 40
2.0
100
AcDbArc
 50
90.0
 51
180.0
  0
LINE
  5
14E7
330
18
100
AcDbEntity
  8
1
100
AcDbLine
 10
191.3449875068254
 20
347.5267241387026
 30
0.0
 11
191.3449875068254
 21
333.5267241387025
 31
0.0
  0
LINE
  5
14E8
330
18
100
AcDbEntity
  8
1
100
AcDbLine
 10
192.8449875068254
 20
347.5267241387026
 30
0.0
 11
192.8449875068254
 21
333.5267241387025
 31
0.0
  0
ARC
  5
14E9
330
18
100
AcDbEntity
  8
1
100
AcDbCircle
 10
204.8449875068254
 20
343.5267241387025
 30
0.0
 40
2.0
100
AcDbArc
 50
90.0
 51
180.0
  0
LINE
  5
14EA
330
18
100
AcDbEntity
  8
1
100
AcDbLine
 10
200.8449875068254
 20
347.5267241387026
 30
0.0
 11
200.8449875068254
 21
333.5267241387025
 31
0.0
  0
LINE
  5
14EB
330
18
100
AcDbEntity
  8
1
100
AcDbLine
 10
193.3449875068254
 20
342.5267241387026
 30
0.0
 11
200.3449875068254
 21
342.5267241387026
 31
0.0
  0
LINE
  5
14EC
330
18
100
AcDbEntity
  8
1
100
AcDbLine
 10
192.8449875068254
 20
333.5267241387025
 30
0.0
 11
200.8449875068254
 21
333.5267241387025
 31
0.0
  0
LINE
  5
14ED
330
18
100
AcDbEntity
  8
1
100
AcDbLine
 10
192.8449875068254
 20
340.5267241387026
 30
0.0
 11
200.8449875068254
 21
340.5267241387026
 31
0.0
  0
LINE
  5
14EE
330
18
100
AcDbEntity
  8
1
100
AcDbLine
 10
192.8449875068254
 20
339.5267241387025
 30
0.0
 11
200.8449875068254
 21
339.5267241387025
 31
0.0
  0
LINE
  5
14EF
330
18
100
AcDbEntity
  8
1
100
AcDbLine
 10
192.8449875068254
 20
339.0267241387026
 30
0.0
 11
200.8449875068254
 21
339.0267241387026
 31
0.0
  0
LINE
  5
14F0
330
18
100
AcDbEntity
  8
1
100
AcDbLine
 10
192.8449875068254
 20
342.0267241387026
 30
0.0
 11
200.8449875068254
 21
342.0267241387026
 31
0.0
  0
LINE
  5
14F1
330
18
100
AcDbEntity
  8
1
100
AcDbLine
 10
193.8449875068254
 20
340.5267241387026
 30
0.0
 11
193.8449875068254
 21
339.5267241387025
 31
0.0
  0
LINE
  5
14F2
330
18
100
AcDbEntity
  8
1
100
AcDbLine
 10
193.3449875068254
 20
343.5267241387025
 30
0.0
 11
193.3449875068254
 21
342.0267241387026
 31
0.0
  0
LINE
  5
14F3
330
18
100
AcDbEntity
  8
1
100
AcDbLine
 10
190.3449875068254
 20
340.5267241387026
 30
0.0
 11
190.3449875068254
 21
339.5267241387025
 31
0.0
  0
LINE
  5
14F4
330
18
100
AcDbEntity
  8
1
100
AcDbLine
 10
190.8449875068254
 20
343.5267241387025
 30
0.0
 11
190.8449875068254
 21
342.0267241387026
 31
0.0
  0
LINE
  5
14F5
330
18
100
AcDbEntity
  8
1
100
AcDbLine
 10
203.3449875068254
 20
340.5267241387026
 30
0.0
 11
203.3449875068254
 21
339.5267241387025
 31
0.0
  0
LINE
  5
14F6
330
18
100
AcDbEntity
  8
1
100
AcDbLine
 10
202.8449875068254
 20
343.5267241387025
 30
0.0
 11
202.8449875068254
 21
342.0267241387026
 31
0.0
  0
LINE
  5
14F7
330
18
100
AcDbEntity
  8
1
100
AcDbLine
 10
199.8449875068254
 20
340.5267241387026
 30
0.0
 11
199.8449875068254
 21
339.5267241387025
 31
0.0
  0
LINE
  5
14F8
330
18
100
AcDbEntity
  8
1
100
AcDbLine
 10
200.3449875068254
 20
343.5267241387025
 30
0.0
 11
200.3449875068254
 21
342.0267241387026
 31
0.0
  0
LINE
  5
14F9
330
18
100
AcDbEntity
  8
1
100
AcDbLine
 10
195.3449875068254
 20
345.5267241387026
 30
0.0
 11
198.3449875068254
 21
345.5267241387026
 31
0.0
  0
LINE
  5
14FA
330
18
100
AcDbEntity
  8
1
100
AcDbLine
 10
191.3449875068254
 20
347.5267241387026
 30
0.0
 11
192.8449875068254
 21
347.5267241387026
 31
0.0
  0
ARC
  5
14FB
330
18
100
AcDbEntity
  8
1
100
AcDbCircle
 10
196.8449875068254
 20
345.5267241387026
 30
0.0
 40
0.5
100
AcDbArc
 50
180.0
 51
0.0
  0
LINE
  5
14FC
330
18
100
AcDbEntity
  8
1
100
AcDbLine
 10
200.8449875068254
 20
347.5267241387026
 30
0.0
 11
202.3449875068254
 21
347.5267241387026
 31
0.0
  0
ARC
  5
14FD
330
18
100
AcDbEntity
  8
1
100
AcDbCircle
 10
206.3449875068254
 20
345.5267241387026
 30
0.0
 40
0.5
100
AcDbArc
 50
180.0
 51
0.0
  0
LINE
  5
14FE
330
18
100
AcDbEntity
  8
1
100
AcDbLine
 10
211.8449875068254
 20
347.5267241387026
 30
0.0
 11
211.8449875068254
 21
333.5267241387025
 31
0.0
  0
LINE
  5
14FF
330
18
100
AcDbEntity
  8
1
100
AcDbLine
 10
210.3449875068254
 20
347.5267241387026
 30
0.0
 11
210.3449875068254
 21
333.5267241387025
 31
0.0
  0
LINE
  5
1500
330
18
100
AcDbEntity
  8
1
100
AcDbLine
 10
221.3449875068254
 20
347.5267241387026
 30
0.0
 11
221.3449875068254
 21
333.5267241387025
 31
0.0
  0
LINE
  5
1501
330
18
100
AcDbEntity
  8
1
100
AcDbLine
 10
219.8449875068254
 20
347.5267241387026
 30
0.0
 11
219.8449875068254
 21
333.5267241387025
 31
0.0
  0
ARC
  5
1502
330
18
100
AcDbEntity
  8
1
100
AcDbCircle
 10
214.3449875068254
 20
343.5267241387025
 30
0.0
 40
2.0
100
AcDbArc
 50
90.0
 51
180.0
  0
ARC
  5
1503
330
18
100
AcDbEntity
  8
1
100
AcDbCircle
 10
207.8449875068254
 20
343.5267241387025
 30
0.0
 40
2.0
100
AcDbArc
 50
0.0
 51
90.0
  0
ARC
  5
1504
330
18
100
AcDbEntity
  8
1
100
AcDbCircle
 10
223.8449875068254
 20
343.5267241387025
 30
0.0
 40
2.0
100
AcDbArc
 50
90.0
 51
180.0
  0
ARC
  5
1505
330
18
100
AcDbEntity
  8
1
100
AcDbCircle
 10
217.3449875068254
 20
343.5267241387025
 30
0.0
 40
2.0
100
AcDbArc
 50
0.0
 51
90.0
  0
LINE
  5
1506
330
18
100
AcDbEntity
  8
1
100
AcDbLine
 10
211.8449875068254
 20
333.5267241387025
 30
0.0
 11
219.8449875068254
 21
333.5267241387025
 31
0.0
  0
LINE
  5
1507
330
18
100
AcDbEntity
  8
1
100
AcDbLine
 10
211.8449875068254
 20
339.0267241387026
 30
0.0
 11
219.8449875068254
 21
339.0267241387026
 31
0.0
  0
LINE
  5
1508
330
18
100
AcDbEntity
  8
1
100
AcDbLine
 10
211.8449875068254
 20
339.5267241387025
 30
0.0
 11
219.8449875068254
 21
339.5267241387025
 31
0.0
  0
LINE
  5
1509
330
18
100
AcDbEntity
  8
1
100
AcDbLine
 10
211.8449875068254
 20
340.5267241387026
 30
0.0
 11
219.8449875068254
 21
340.5267241387026
 31
0.0
  0
LINE
  5
150A
330
18
100
AcDbEntity
  8
1
100
AcDbLine
 10
211.8449875068254
 20
342.0267241387026
 30
0.0
 11
219.8449875068254
 21
342.0267241387026
 31
0.0
  0
LINE
  5
150B
330
18
100
AcDbEntity
  8
1
100
AcDbLine
 10
212.3449875068254
 20
342.5267241387026
 30
0.0
 11
219.3449875068254
 21
342.5267241387026
 31
0.0
  0
LINE
  5
150C
330
18
100
AcDbEntity
  8
1
100
AcDbLine
 10
212.8449875068254
 20
340.5267241387026
 30
0.0
 11
212.8449875068254
 21
339.5267241387025
 31
0.0
  0
LINE
  5
150D
330
18
100
AcDbEntity
  8
1
100
AcDbLine
 10
212.3449875068254
 20
343.5267241387025
 30
0.0
 11
212.3449875068254
 21
342.0267241387026
 31
0.0
  0
LINE
  5
150E
330
18
100
AcDbEntity
  8
1
100
AcDbLine
 10
209.8449875068254
 20
343.5267241387025
 30
0.0
 11
209.8449875068254
 21
342.0267241387026
 31
0.0
  0
LINE
  5
150F
330
18
100
AcDbEntity
  8
1
100
AcDbLine
 10
209.3449875068254
 20
340.5267241387026
 30
0.0
 11
209.3449875068254
 21
339.5267241387025
 31
0.0
  0
LINE
  5
1510
330
18
100
AcDbEntity
  8
1
100
AcDbLine
 10
218.8449875068254
 20
340.5267241387026
 30
0.0
 11
218.8449875068254
 21
339.5267241387025
 31
0.0
  0
LINE
  5
1511
330
18
100
AcDbEntity
  8
1
100
AcDbLine
 10
219.3449875068254
 20
343.5267241387025
 30
0.0
 11
219.3449875068254
 21
342.0267241387026
 31
0.0
  0
LINE
  5
1512
330
18
100
AcDbEntity
  8
1
100
AcDbLine
 10
222.3449875068254
 20
340.5267241387026
 30
0.0
 11
222.3449875068254
 21
339.5267241387025
 31
0.0
  0
LINE
  5
1513
330
18
100
AcDbEntity
  8
1
100
AcDbLine
 10
221.8449875068254
 20
343.5267241387025
 30
0.0
 11
221.8449875068254
 21
342.0267241387026
 31
0.0
  0
LINE
  5
1514
330
18
100
AcDbEntity
  8
1
100
AcDbLine
 10
214.3449875068254
 20
345.5267241387026
 30
0.0
 11
217.3449875068254
 21
345.5267241387026
 31
0.0
  0
LINE
  5
1515
330
18
100
AcDbEntity
  8
1
100
AcDbLine
 10
210.3449875068254
 20
347.5267241387026
 30
0.0
 11
211.8449875068254
 21
347.5267241387026
 31
0.0
  0
ARC
  5
1516
330
18
100
AcDbEntity
  8
1
100
AcDbCircle
 10
215.8449875068254
 20
345.5267241387026
 30
0.0
 40
0.5
100
AcDbArc
 50
180.0
 51
0.0
  0
LINE
  5
1517
330
18
100
AcDbEntity
  8
1
100
AcDbLine
 10
219.8449875068254
 20
347.5267241387026
 30
0.0
 11
221.3449875068254
 21
347.5267241387026
 31
0.0
  0
LINE
  5
1518
330
18
100
AcDbEntity
  8
1
100
AcDbLine
 10
242.8449875068254
 20
345.5267241387026
 30
0.0
 11
245.8449875068254
 21
345.5267241387026
 31
0.0
  0
ARC
  5
1519
330
18
100
AcDbEntity
  8
1
100
AcDbCircle
 10
244.3449875068254
 20
345.5267241387025
 30
0.0
 40
0.5
100
AcDbArc
 50
180.0
 51
0.0
  0
LINE
  5
151A
330
18
100
AcDbEntity
  8
1
100
AcDbLine
 10
240.3449875068254
 20
333.5267241387025
 30
0.0
 11
248.3449875068254
 21
333.5267241387025
 31
0.0
  0
LINE
  5
151B
330
18
100
AcDbEntity
  8
1
100
AcDbLine
 10
240.3449875068254
 20
339.0267241387026
 30
0.0
 11
248.3449875068254
 21
339.0267241387026
 31
0.0
  0
LINE
  5
151C
330
18
100
AcDbEntity
  8
1
100
AcDbLine
 10
240.3449875068254
 20
339.5267241387025
 30
0.0
 11
248.3449875068254
 21
339.5267241387025
 31
0.0
  0
LINE
  5
151D
330
18
100
AcDbEntity
  8
1
100
AcDbLine
 10
240.3449875068254
 20
342.0267241387026
 30
0.0
 11
248.3449875068254
 21
342.0267241387026
 31
0.0
  0
LINE
  5
151E
330
18
100
AcDbEntity
  8
1
100
AcDbLine
 10
240.3449875068254
 20
340.5267241387026
 30
0.0
 11
248.3449875068254
 21
340.5267241387026
 31
0.0
  0
LINE
  5
151F
330
18
100
AcDbEntity
  8
1
100
AcDbLine
 10
240.8449875068254
 20
342.5267241387026
 30
0.0
 11
247.8449875068254
 21
342.5267241387026
 31
0.0
  0
LINE
  5
1520
330
18
100
AcDbEntity
  8
1
100
AcDbLine
 10
230.8449875068254
 20
347.5267241387026
 30
0.0
 11
230.8449875068254
 21
333.5267241387025
 31
0.0
  0
LINE
  5
1521
330
18
100
AcDbEntity
  8
1
100
AcDbLine
 10
229.3449875068254
 20
347.5267241387026
 30
0.0
 11
229.3449875068254
 21
333.5267241387025
 31
0.0
  0
ARC
  5
1522
330
18
100
AcDbEntity
  8
1
100
AcDbCircle
 10
226.8449875068254
 20
343.5267241387025
 30
0.0
 40
2.0
100
AcDbArc
 50
0.0
 51
90.0
  0
LINE
  5
1523
330
18
100
AcDbEntity
  8
1
100
AcDbLine
 10
240.3449875068254
 20
347.5267241387026
 30
0.0
 11
240.3449875068254
 21
333.5267241387025
 31
0.0
  0
LINE
  5
1524
330
18
100
AcDbEntity
  8
1
100
AcDbLine
 10
238.8449875068254
 20
347.5267241387026
 30
0.0
 11
238.8449875068254
 21
333.5267241387025
 31
0.0
  0
ARC
  5
1525
330
18
100
AcDbEntity
  8
1
100
AcDbCircle
 10
242.8449875068254
 20
343.5267241387025
 30
0.0
 40
2.0
100
AcDbArc
 50
90.0
 51
180.0
  0
ARC
  5
1526
330
18
100
AcDbEntity
  8
1
100
AcDbCircle
 10
233.3449875068254
 20
343.5267241387025
 30
0.0
 40
2.0
100
AcDbArc
 50
90.0
 51
180.0
  0
ARC
  5
1527
330
18
100
AcDbEntity
  8
1
100
AcDbCircle
 10
236.3449875068254
 20
343.5267241387025
 30
0.0
 40
2.0
100
AcDbArc
 50
0.0
 51
90.0
  0
LINE
  5
1528
330
18
100
AcDbEntity
  8
1
100
AcDbLine
 10
230.8449875068254
 20
333.5267241387025
 30
0.0
 11
238.8449875068254
 21
333.5267241387025
 31
0.0
  0
LINE
  5
1529
330
18
100
AcDbEntity
  8
1
100
AcDbLine
 10
230.8449875068254
 20
339.0267241387026
 30
0.0
 11
238.8449875068254
 21
339.0267241387026
 31
0.0
  0
LINE
  5
152A
330
18
100
AcDbEntity
  8
1
100
AcDbLine
 10
230.8449875068254
 20
339.5267241387025
 30
0.0
 11
238.8449875068254
 21
339.5267241387025
 31
0.0
  0
LINE
  5
152B
330
18
100
AcDbEntity
  8
1
100
AcDbLine
 10
230.8449875068254
 20
340.5267241387026
 30
0.0
 11
238.8449875068254
 21
340.5267241387026
 31
0.0
  0
LINE
  5
152C
330
18
100
AcDbEntity
  8
1
100
AcDbLine
 10
230.8449875068254
 20
342.0267241387026
 30
0.0
 11
238.8449875068254
 21
342.0267241387026
 31
0.0
  0
LINE
  5
152D
330
18
100
AcDbEntity
  8
1
100
AcDbLine
 10
231.3449875068254
 20
342.5267241387026
 30
0.0
 11
238.3449875068254
 21
342.5267241387026
 31
0.0
  0
LINE
  5
152E
330
18
100
AcDbEntity
  8
1
100
AcDbLine
 10
228.3449875068254
 20
340.5267241387026
 30
0.0
 11
228.3449875068254
 21
339.5267241387025
 31
0.0
  0
LINE
  5
152F
330
18
100
AcDbEntity
  8
1
100
AcDbLine
 10
231.8449875068254
 20
340.5267241387026
 30
0.0
 11
231.8449875068254
 21
339.5267241387025
 31
0.0
  0
LINE
  5
1530
330
18
100
AcDbEntity
  8
1
100
AcDbLine
 10
231.3449875068254
 20
343.5267241387025
 30
0.0
 11
231.3449875068254
 21
342.0267241387026
 31
0.0
  0
LINE
  5
1531
330
18
100
AcDbEntity
  8
1
100
AcDbLine
 10
228.8449875068254
 20
343.5267241387025
 30
0.0
 11
228.8449875068254
 21
342.0267241387026
 31
0.0
  0
LINE
  5
1532
330
18
100
AcDbEntity
  8
1
100
AcDbLine
 10
241.3449875068254
 20
340.5267241387026
 30
0.0
 11
241.3449875068254
 21
339.5267241387025
 31
0.0
  0
LINE
  5
1533
330
18
100
AcDbEntity
  8
1
100
AcDbLine
 10
240.8449875068254
 20
343.5267241387025
 30
0.0
 11
240.8449875068254
 21
342.0267241387026
 31
0.0
  0
LINE
  5
1534
330
18
100
AcDbEntity
  8
1
100
AcDbLine
 10
238.3449875068254
 20
343.5267241387025
 30
0.0
 11
238.3449875068254
 21
342.0267241387026
 31
0.0
  0
LINE
  5
1535
330
18
100
AcDbEntity
  8
1
100
AcDbLine
 10
237.8449875068254
 20
340.5267241387026
 30
0.0
 11
237.8449875068254
 21
339.5267241387025
 31
0.0
  0
ARC
  5
1536
330
18
100
AcDbEntity
  8
1
100
AcDbCircle
 10
234.8449875068254
 20
345.5267241387025
 30
0.0
 40
0.5
100
AcDbArc
 50
180.0
 51
0.0
  0
LINE
  5
1537
330
18
100
AcDbEntity
  8
1
100
AcDbLine
 10
233.3449875068254
 20
345.5267241387026
 30
0.0
 11
236.3449875068254
 21
345.5267241387026
 31
0.0
  0
LINE
  5
1538
330
18
100
AcDbEntity
  8
1
100
AcDbLine
 10
229.3449875068254
 20
347.5267241387026
 30
0.0
 11
230.8449875068254
 21
347.5267241387026
 31
0.0
  0
LINE
  5
1539
330
18
100
AcDbEntity
  8
1
100
AcDbLine
 10
238.8449875068254
 20
347.5267241387026
 30
0.0
 11
240.3449875068254
 21
347.5267241387026
 31
0.0
  0
LINE
  5
153A
330
18
100
AcDbEntity
  8
1
100
AcDbLine
 10
257.8449875068254
 20
347.5267241387026
 30
0.0
 11
257.8449875068254
 21
333.5267241387025
 31
0.0
  0
LINE
  5
153B
330
18
100
AcDbEntity
  8
1
100
AcDbLine
 10
249.8449875068254
 20
347.5267241387026
 30
0.0
 11
249.8449875068254
 21
333.5267241387025
 31
0.0
  0
LINE
  5
153C
330
18
100
AcDbEntity
  8
1
100
AcDbLine
 10
248.3449875068254
 20
347.5267241387026
 30
0.0
 11
248.3449875068254
 21
333.5267241387025
 31
0.0
  0
ARC
  5
153D
330
18
100
AcDbEntity
  8
1
100
AcDbCircle
 10
252.3449875068254
 20
343.5267241387025
 30
0.0
 40
2.0
100
AcDbArc
 50
90.0
 51
180.0
  0
ARC
  5
153E
330
18
100
AcDbEntity
  8
1
100
AcDbCircle
 10
255.3449875068254
 20
343.5267241387025
 30
0.0
 40
2.0
100
AcDbArc
 50
0.0
 51
90.0
  0
LINE
  5
153F
330
18
100
AcDbEntity
  8
1
100
AcDbLine
 10
259.3449875068254
 20
347.5267241387026
 30
0.0
 11
259.3449875068254
 21
333.5267241387025
 31
0.0
  0
ARC
  5
1540
330
18
100
AcDbEntity
  8
1
100
AcDbCircle
 10
261.8449875068254
 20
343.5267241387025
 30
0.0
 40
2.0
100
AcDbArc
 50
90.0
 51
180.0
  0
ARC
  5
1541
330
18
100
AcDbEntity
  8
1
100
AcDbCircle
 10
245.8449875068254
 20
343.5267241387025
 30
0.0
 40
2.0
100
AcDbArc
 50
0.0
 51
90.0
  0
LINE
  5
1542
330
18
100
AcDbEntity
  8
1
100
AcDbLine
 10
249.8449875068254
 20
333.5267241387025
 30
0.0
 11
257.8449875068254
 21
333.5267241387025
 31
0.0
  0
LINE
  5
1543
330
18
100
AcDbEntity
  8
1
100
AcDbLine
 10
249.8449875068254
 20
339.0267241387026
 30
0.0
 11
257.8449875068254
 21
339.0267241387026
 31
0.0
  0
LINE
  5
1544
330
18
100
AcDbEntity
  8
1
100
AcDbLine
 10
249.8449875068254
 20
339.5267241387025
 30
0.0
 11
257.8449875068254
 21
339.5267241387025
 31
0.0
  0
LINE
  5
1545
330
18
100
AcDbEntity
  8
1
100
AcDbLine
 10
249.8449875068254
 20
342.0267241387026
 30
0.0
 11
257.8449875068254
 21
342.0267241387026
 31
0.0
  0
LINE
  5
1546
330
18
100
AcDbEntity
  8
1
100
AcDbLine
 10
249.8449875068254
 20
340.5267241387026
 30
0.0
 11
257.8449875068254
 21
340.5267241387026
 31
0.0
  0
LINE
  5
1547
330
18
100
AcDbEntity
  8
1
100
AcDbLine
 10
250.3449875068254
 20
342.5267241387026
 30
0.0
 11
257.3449875068254
 21
342.5267241387026
 31
0.0
  0
LINE
  5
1548
330
18
100
AcDbEntity
  8
1
100
AcDbLine
 10
250.8449875068254
 20
340.5267241387026
 30
0.0
 11
250.8449875068254
 21
339.5267241387025
 31
0.0
  0
LINE
  5
1549
330
18
100
AcDbEntity
  8
1
100
AcDbLine
 10
247.3449875068254
 20
340.5267241387026
 30
0.0
 11
247.3449875068254
 21
339.5267241387025
 31
0.0
  0
LINE
  5
154A
330
18
100
AcDbEntity
  8
1
100
AcDbLine
 10
250.3449875068254
 20
343.5267241387025
 30
0.0
 11
250.3449875068254
 21
342.0267241387026
 31
0.0
  0
LINE
  5
154B
330
18
100
AcDbEntity
  8
1
100
AcDbLine
 10
247.8449875068254
 20
343.5267241387025
 30
0.0
 11
247.8449875068254
 21
342.0267241387026
 31
0.0
  0
LINE
  5
154C
330
18
100
AcDbEntity
  8
1
100
AcDbLine
 10
256.8449875068254
 20
340.5267241387026
 30
0.0
 11
256.8449875068254
 21
339.5267241387025
 31
0.0
  0
LINE
  5
154D
330
18
100
AcDbEntity
  8
1
100
AcDbLine
 10
257.3449875068254
 20
343.5267241387025
 30
0.0
 11
257.3449875068254
 21
342.0267241387026
 31
0.0
  0
LINE
  5
154E
330
18
100
AcDbEntity
  8
1
100
AcDbLine
 10
260.3449875068254
 20
340.5267241387026
 30
0.0
 11
260.3449875068254
 21
339.5267241387025
 31
0.0
  0
LINE
  5
154F
330
18
100
AcDbEntity
  8
1
100
AcDbLine
 10
259.8449875068254
 20
343.5267241387025
 30
0.0
 11
259.8449875068254
 21
342.0267241387026
 31
0.0
  0
LINE
  5
1550
330
18
100
AcDbEntity
  8
1
100
AcDbLine
 10
252.3449875068254
 20
345.5267241387026
 30
0.0
 11
255.3449875068254
 21
345.5267241387026
 31
0.0
  0
ARC
  5
1551
330
18
100
AcDbEntity
  8
1
100
AcDbCircle
 10
253.8449875068254
 20
345.5267241387025
 30
0.0
 40
0.5
100
AcDbArc
 50
180.0
 51
0.0
  0
LINE
  5
1552
330
18
100
AcDbEntity
  8
1
100
AcDbLine
 10
248.3449875068254
 20
347.5267241387026
 30
0.0
 11
249.8449875068254
 21
347.5267241387026
 31
0.0
  0
LINE
  5
1553
330
18
100
AcDbEntity
  8
1
100
AcDbLine
 10
257.8449875068254
 20
347.5267241387026
 30
0.0
 11
259.3449875068254
 21
347.5267241387026
 31
0.0
  0
DIMENSION
  5
1554
330
18
100
AcDbEntity
  8
2
100
AcDbDimension
  2
*D11
 10
352.0949871548123
 20
339.8267241387026
 30
0.0
 11
350.3449871548122
 21
307.8267241387026
 31
0.0
 70
    32
 71
     5
 42
64.0
  3
STANDARD
100
AcDbAlignedDimension
 13
363.2812676648418
 23
275.8267241387026
 33
0.0
 14
363.2812676648418
 24
339.8267241387026
 34
0.0
 50
90.0
100
AcDbRotatedDimension
1001
ACAD
1000
DSTYLE
1002
{
1070
    40
1040
1.0
1002
}
  0
LINE
  5
1555
330
18
100
AcDbEntity
  8
1
100
AcDbLine
 10
359.2812676648418
 20
273.8267241387026
 30
0.0
 11
359.2812676648418
 21
341.8267241387026
 31
0.0
  0
LINE
  5
1556
330
18
100
AcDbEntity
  8
1
100
AcDbLine
 10
270.5949875068254
 20
272.3267241387026
 30
0.0
 11
270.5949875068254
 21
293.3267241387026
 31
0.0
  0
LINE
  5
1557
330
18
100
AcDbEntity
  8
1
100
AcDbLine
 10
302.0949875068254
 20
271.3267241387026
 30
0.0
 11
299.0949875068254
 21
268.3267241387026
 31
0.0
  0
LINE
  5
1558
330
18
100
AcDbEntity
  8
1
100
AcDbLine
 10
297.8949875068254
 20
282.3267241387025
 30
0.0
 11
280.5949875068254
 21
282.3267241387025
 31
0.0
  0
LINE
  5
1559
330
18
100
AcDbEntity
  8
1
100
AcDbLine
 10
279.5949875068254
 20
282.3267241387025
 30
0.0
 11
271.5949875068254
 21
282.3267241387025
 31
0.0
  0
LINE
  5
155A
330
18
100
AcDbEntity
  8
1
100
AcDbLine
 10
279.5949875068251
 20
276.8267241387026
 30
0.0
 11
271.5949875068251
 21
276.8267241387023
 31
0.0
  0
LINE
  5
155B
330
18
100
AcDbEntity
  8
1
100
AcDbLine
 10
279.5949875068251
 20
275.8267241387026
 30
0.0
 11
271.5949875068251
 21
275.8267241387023
 31
0.0
  0
LINE
  5
155C
330
18
100
AcDbEntity
  8
1
100
AcDbLine
 10
279.5949875068254
 20
274.8267241387026
 30
0.0
 11
271.5949875068254
 21
274.8267241387023
 31
0.0
  0
LINE
  5
155D
330
18
100
AcDbEntity
  8
1
100
AcDbLine
 10
279.5949875068254
 20
273.8267241387026
 30
0.0
 11
271.5949875068254
 21
273.8267241387023
 31
0.0
  0
LINE
  5
155E
330
18
100
AcDbEntity
  8
1
100
AcDbLine
 10
279.5949875068254
 20
272.8267241387026
 30
0.0
 11
271.5949875068254
 21
272.8267241387023
 31
0.0
  0
LINE
  5
155F
330
18
100
AcDbEntity
  8
1
100
AcDbLine
 10
271.5949875068254
 20
272.8267241387023
 30
0.0
 11
271.5949875068254
 21
282.3267241387025
 31
0.0
  0
LINE
  5
1560
330
18
100
AcDbEntity
  8
1
100
AcDbLine
 10
280.5949875068254
 20
272.3267241387026
 30
0.0
 11
280.5949875068254
 21
282.3267241387025
 31
0.0
  0
LINE
  5
1561
330
18
100
AcDbEntity
  8
1
100
AcDbLine
 10
279.5949875068254
 20
272.8267241387026
 30
0.0
 11
279.5949875068254
 21
282.3267241387025
 31
0.0
  0
LINE
  5
1562
330
18
100
AcDbEntity
  8
1
100
AcDbLine
 10
298.0949875068254
 20
272.3267241387026
 30
0.0
 11
298.0949875068254
 21
282.3267241387025
 31
0.0
  0
LINE
  5
1563
330
18
100
AcDbEntity
  8
1
100
AcDbLine
 10
302.0949875068254
 20
271.3267241387026
 30
0.0
 11
302.0949875068254
 21
272.3267241387026
 31
0.0
  0
LINE
  5
1564
330
18
100
AcDbEntity
  8
1
  6
ByBlock
100
AcDbLine
 10
266.5949875068251
 20
290.8267241387026
 30
0.0
 11
265.5949875068251
 21
290.8267241387026
 31
0.0
  0
LINE
  5
1565
330
18
100
AcDbEntity
  8
1
  6
ByBlock
100
AcDbLine
 10
265.5949875068251
 20
287.8267241387026
 30
0.0
 11
266.5949875068251
 21
287.8267241387026
 31
0.0
  0
LINE
  5
1566
330
18
100
AcDbEntity
  8
1
  6
ByBlock
100
AcDbLine
 10
265.5949875068251
 20
290.8267241387026
 30
0.0
 11
265.5949875068251
 21
290.3267241387026
 31
0.0
  0
LINE
  5
1567
330
18
100
AcDbEntity
  8
1
  6
ByBlock
100
AcDbLine
 10
265.5949875068251
 20
288.3267241387026
 30
0.0
 11
265.5949875068251
 21
287.8267241387026
 31
0.0
  0
ARC
  5
1568
330
18
100
AcDbEntity
  8
1
  6
ByBlock
100
AcDbCircle
 10
265.0949875068251
 20
288.3267241387026
 30
0.0
 40
0.5
100
AcDbArc
 50
0.0
 51
90.0
  0
ARC
  5
1569
330
18
100
AcDbEntity
  8
1
  6
ByBlock
100
AcDbCircle
 10
265.0949875068251
 20
290.3267241387026
 30
0.0
 40
0.5
100
AcDbArc
 50
270.0
 51
0.0
  0
ARC
  5
156A
330
18
100
AcDbEntity
  8
1
  6
ByBlock
100
AcDbCircle
 10
267.0949875068251
 20
290.3267241387026
 30
0.0
 40
0.5
100
AcDbArc
 50
180.0
 51
270.0
  0
LINE
  5
156B
330
18
100
AcDbEntity
  8
1
  6
ByBlock
100
AcDbLine
 10
266.5949875068251
 20
290.3267241387026
 30
0.0
 11
266.5949875068251
 21
290.8267241387026
 31
0.0
  0
LINE
  5
156C
330
18
100
AcDbEntity
  8
1
  6
ByBlock
100
AcDbLine
 10
267.5949875068251
 20
289.8267241387026
 30
0.0
 11
267.0949875068251
 21
289.8267241387026
 31
0.0
  0
ARC
  5
156D
330
18
100
AcDbEntity
  8
1
  6
ByBlock
100
AcDbCircle
 10
267.0949875068251
 20
288.3267241387026
 30
0.0
 40
0.5
100
AcDbArc
 50
90.0
 51
180.0
  0
LINE
  5
156E
330
18
100
AcDbEntity
  8
1
  6
ByBlock
100
AcDbLine
 10
267.0949875068251
 20
288.8267241387026
 30
0.0
 11
267.5949875068251
 21
288.8267241387026
 31
0.0
  0
LINE
  5
156F
330
18
100
AcDbEntity
  8
1
  6
ByBlock
100
AcDbLine
 10
266.5949875068251
 20
287.8267241387026
 30
0.0
 11
266.5949875068251
 21
288.3267241387026
 31
0.0
  0
LINE
  5
1570
330
18
100
AcDbEntity
  8
1
  6
ByBlock
100
AcDbLine
 10
267.5949875068251
 20
288.8267241387026
 30
0.0
 11
267.5949875068251
 21
289.8267241387026
 31
0.0
  0
LINE
  5
1571
330
18
100
AcDbEntity
  8
1
  6
ByBlock
100
AcDbLine
 10
264.5949875068251
 20
289.8267241387026
 30
0.0
 11
264.5949875068251
 21
288.8267241387026
 31
0.0
  0
CIRCLE
  5
1572
330
18
100
AcDbEntity
  8
1
  6
ByBlock
100
AcDbCircle
 10
266.0949875068252
 20
289.3267241387026
 30
0.0
 40
2.799999999999999
  0
LINE
  5
1573
330
18
100
AcDbEntity
  8
1
  6
ByBlock
100
AcDbLine
 10
264.5949875068251
 20
288.8267241387026
 30
0.0
 11
265.0949875068251
 21
288.8267241387026
 31
0.0
  0
LINE
  5
1574
330
18
100
AcDbEntity
  8
1
  6
ByBlock
100
AcDbLine
 10
265.0949875068251
 20
289.8267241387026
 30
0.0
 11
264.5949875068251
 21
289.8267241387026
 31
0.0
  0
LINE
  5
1575
330
18
100
AcDbEntity
  8
1
100
AcDbLine
 10
394.0312676648418
 20
281.1267241387026
 30
0.0
 11
394.0312676648418
 21
294.1267241387026
 31
0.0
  0
LINE
  5
1576
330
18
100
AcDbEntity
  8
1
100
AcDbLine
 10
402.0312676648418
 20
281.1267241387026
 30
0.0
 11
402.0312676648418
 21
294.1267241387026
 31
0.0
  0
LINE
  5
1577
330
18
100
AcDbEntity
  8
1
100
AcDbLine
 10
403.5312676648418
 20
281.1267241387026
 30
0.0
 11
403.5312676648418
 21
294.1267241387026
 31
0.0
  0
LINE
  5
1578
330
18
100
AcDbEntity
  8
1
100
AcDbLine
 10
375.0312676648418
 20
281.1267241387026
 30
0.0
 11
375.0312676648418
 21
294.1267241387026
 31
0.0
  0
LINE
  5
1579
330
18
100
AcDbEntity
  8
1
100
AcDbLine
 10
383.0312676648418
 20
281.1267241387026
 30
0.0
 11
383.0312676648418
 21
294.1267241387026
 31
0.0
  0
LINE
  5
157A
330
18
100
AcDbEntity
  8
1
100
AcDbLine
 10
383.0312676648418
 20
281.1267241387026
 30
0.0
 11
383.0312676648418
 21
294.1267241387026
 31
0.0
  0
LINE
  5
157B
330
18
100
AcDbEntity
  8
1
100
AcDbLine
 10
384.5312676648418
 20
281.1267241387026
 30
0.0
 11
384.5312676648418
 21
294.1267241387026
 31
0.0
  0
LINE
  5
157C
330
18
100
AcDbEntity
  8
1
100
AcDbLine
 10
392.5312676648418
 20
281.1267241387026
 30
0.0
 11
392.5312676648418
 21
294.1267241387026
 31
0.0
  0
LINE
  5
157D
330
18
100
AcDbEntity
  8
1
100
AcDbLine
 10
392.5312676648418
 20
281.1267241387026
 30
0.0
 11
392.5312676648418
 21
294.1267241387026
 31
0.0
  0
LINE
  5
157E
330
18
100
AcDbEntity
  8
1
100
AcDbLine
 10
374.5312676648418
 20
294.6267241387026
 30
0.0
 11
374.5312676648418
 21
280.6267241387026
 31
0.0
  0
ARC
  5
157F
330
18
100
AcDbEntity
  8
1
100
AcDbCircle
 10
361.2812676648418
 20
273.8267241387026
 30
0.0
 40
2.0
100
AcDbArc
 50
180.0
 51
270.0
  0
LINE
  5
1580
330
18
100
AcDbEntity
  8
1
100
AcDbLine
 10
392.5312676648418
 20
282.1267241387026
 30
0.0
 11
384.5312676648418
 21
282.1267241387026
 31
0.0
  0
LINE
  5
1581
330
18
100
AcDbEntity
  8
1
100
AcDbLine
 10
392.5312676648418
 20
281.1267241387026
 30
0.0
 11
383.0312676648418
 21
281.1267241387026
 31
0.0
  0
LINE
  5
1582
330
18
100
AcDbEntity
  8
1
100
AcDbLine
 10
383.0312676648418
 20
282.1267241387026
 30
0.0
 11
375.0312676648418
 21
282.1267241387026
 31
0.0
  0
LINE
  5
1583
330
18
100
AcDbEntity
  8
1
100
AcDbLine
 10
383.0312676648418
 20
281.1267241387026
 30
0.0
 11
375.0312676648418
 21
281.1267241387026
 31
0.0
  0
LINE
  5
1584
330
18
100
AcDbEntity
  8
1
100
AcDbLine
 10
385.7812676648418
 20
272.4933908053692
 30
0.0
 11
381.8812676648419
 21
272.4933908053692
 31
0.0
  0
LINE
  5
1585
330
18
100
AcDbEntity
  8
1
100
AcDbLine
 10
381.8812676648419
 20
275.8267241387026
 30
0.0
 11
389.6812676648418
 21
275.8267241387026
 31
0.0
  0
LINE
  5
1586
330
18
100
AcDbEntity
  8
1
100
AcDbLine
 10
381.8812676648419
 20
272.4933908053692
 30
0.0
 11
381.8812676648419
 21
275.8267241387026
 31
0.0
  0
LINE
  5
1587
330
18
100
AcDbEntity
  8
1
100
AcDbLine
 10
389.6812676648418
 20
272.4933908053692
 30
0.0
 11
389.6812676648418
 21
275.8267241387026
 31
0.0
  0
LINE
  5
1588
330
18
100
AcDbEntity
  8
1
100
AcDbLine
 10
385.7812676648418
 20
272.4933908053692
 30
0.0
 11
389.6812676648418
 21
272.4933908053692
 31
0.0
  0
LINE
  5
1589
330
18
100
AcDbEntity
  8
1
100
AcDbLine
 10
402.0312676648418
 20
282.1267241387026
 30
0.0
 11
394.0312676648418
 21
282.1267241387026
 31
0.0
  0
LINE
  5
158A
330
18
100
AcDbEntity
  8
1
100
AcDbLine
 10
402.0312676648418
 20
281.1267241387026
 30
0.0
 11
392.5312676648418
 21
281.1267241387026
 31
0.0
  0
CIRCLE
  5
158B
330
18
100
AcDbEntity
  8
1
100
AcDbCircle
 10
388.5312676648418
 20
287.6267241387026
 30
0.0
 40
3.5
  0
LINE
  5
158C
330
18
100
AcDbEntity
  8
1
100
AcDbLine
 10
392.5312676648418
 20
293.1267241387026
 30
0.0
 11
384.5312676648418
 21
293.1267241387026
 31
0.0
  0
LINE
  5
158D
330
18
100
AcDbEntity
  8
1
100
AcDbLine
 10
391.5312676648418
 20
292.1267241387026
 30
0.0
 11
385.5312676648418
 21
292.1267241387026
 31
0.0
  0
LINE
  5
158E
330
18
100
AcDbEntity
  8
1
100
AcDbLine
 10
392.5312676648418
 20
294.1267241387026
 30
0.0
 11
383.0312676648418
 21
294.1267241387026
 31
0.0
  0
LINE
  5
158F
330
18
100
AcDbEntity
  8
1
100
AcDbLine
 10
391.5312676648418
 20
283.1267241387026
 30
0.0
 11
385.5312676648418
 21
283.1267241387026
 31
0.0
  0
LINE
  5
1590
330
18
100
AcDbEntity
  8
1
100
AcDbLine
 10
383.0312676648418
 20
293.1267241387026
 30
0.0
 11
375.0312676648418
 21
293.1267241387026
 31
0.0
  0
LINE
  5
1591
330
18
100
AcDbEntity
  8
1
100
AcDbLine
 10
383.0312676648418
 20
294.1267241387026
 30
0.0
 11
375.0312676648418
 21
294.1267241387026
 31
0.0
  0
LINE
  5
1592
330
18
100
AcDbEntity
  8
1
100
AcDbLine
 10
382.0312676648418
 20
292.1267241387026
 30
0.0
 11
376.0312676648418
 21
292.1267241387026
 31
0.0
  0
LINE
  5
1593
330
18
100
AcDbEntity
  8
1
100
AcDbLine
 10
382.0312676648418
 20
283.1267241387026
 30
0.0
 11
376.0312676648418
 21
283.1267241387026
 31
0.0
  0
LINE
  5
1594
330
18
100
AcDbEntity
  8
1
100
AcDbLine
 10
379.5312676648418
 20
289.1267241387026
 30
0.0
 11
378.5312676648418
 21
289.1267241387026
 31
0.0
  0
LINE
  5
1595
330
18
100
AcDbEntity
  8
1
100
AcDbLine
 10
378.5312676648418
 20
286.1267241387027
 30
0.0
 11
379.5312676648418
 21
286.1267241387027
 31
0.0
  0
CIRCLE
  5
1596
330
18
100
AcDbEntity
  8
1
100
AcDbCircle
 10
379.0312676648418
 20
287.6267241387026
 30
0.0
 40
2.6
  0
LINE
  5
1597
330
18
100
AcDbEntity
  8
1
100
AcDbLine
 10
377.5312676648418
 20
288.1267241387027
 30
0.0
 11
377.5312676648418
 21
287.1267241387026
 31
0.0
  0
LINE
  5
1598
330
18
100
AcDbEntity
  8
1
100
AcDbLine
 10
378.5312676648418
 20
289.1267241387026
 30
0.0
 11
378.5312676648418
 21
288.6267241387026
 31
0.0
  0
LINE
  5
1599
330
18
100
AcDbEntity
  8
1
100
AcDbLine
 10
378.0312676648418
 20
288.1267241387027
 30
0.0
 11
377.5312676648418
 21
288.1267241387027
 31
0.0
  0
ARC
  5
159A
330
18
100
AcDbEntity
  8
1
100
AcDbCircle
 10
378.0312676648418
 20
288.6267241387026
 30
0.0
 40
0.5
100
AcDbArc
 50
270.0
 51
0.0
  0
LINE
  5
159B
330
18
100
AcDbEntity
  8
1
100
AcDbLine
 10
377.5312676648418
 20
287.1267241387026
 30
0.0
 11
378.0312676648418
 21
287.1267241387026
 31
0.0
  0
LINE
  5
159C
330
18
100
AcDbEntity
  8
1
100
AcDbLine
 10
378.5312676648418
 20
286.6267241387026
 30
0.0
 11
378.5312676648418
 21
286.1267241387027
 31
0.0
  0
ARC
  5
159D
330
18
100
AcDbEntity
  8
1
100
AcDbCircle
 10
378.0312676648418
 20
286.6267241387026
 30
0.0
 40
0.5
100
AcDbArc
 50
0.0
 51
90.0
  0
LINE
  5
159E
330
18
100
AcDbEntity
  8
1
100
AcDbLine
 10
376.0312676648418
 20
291.6267241387026
 30
0.0
 11
375.0312676648418
 21
291.6267241387026
 31
0.0
  0
LINE
  5
159F
330
18
100
AcDbEntity
  8
1
100
AcDbLine
 10
376.0312676648418
 20
292.1267241387026
 30
0.0
 11
376.0312676648418
 21
291.6267241387026
 31
0.0
  0
LINE
  5
15A0
330
18
100
AcDbEntity
  8
1
100
AcDbLine
 10
380.5312676648418
 20
287.1267241387026
 30
0.0
 11
380.5312676648418
 21
288.1267241387027
 31
0.0
  0
LINE
  5
15A1
330
18
100
AcDbEntity
  8
1
100
AcDbLine
 10
380.0312676648418
 20
287.1267241387026
 30
0.0
 11
380.5312676648418
 21
287.1267241387026
 31
0.0
  0
LINE
  5
15A2
330
18
100
AcDbEntity
  8
1
100
AcDbLine
 10
380.5312676648418
 20
288.1267241387027
 30
0.0
 11
380.0312676648418
 21
288.1267241387027
 31
0.0
  0
LINE
  5
15A3
330
18
100
AcDbEntity
  8
1
100
AcDbLine
 10
379.5312676648418
 20
288.6267241387026
 30
0.0
 11
379.5312676648418
 21
289.1267241387026
 31
0.0
  0
ARC
  5
15A4
330
18
100
AcDbEntity
  8
1
100
AcDbCircle
 10
380.0312676648418
 20
288.6267241387026
 30
0.0
 40
0.5
100
AcDbArc
 50
180.0
 51
270.0
  0
LINE
  5
15A5
330
18
100
AcDbEntity
  8
1
100
AcDbLine
 10
379.5312676648418
 20
286.1267241387027
 30
0.0
 11
379.5312676648418
 21
286.6267241387026
 31
0.0
  0
ARC
  5
15A6
330
18
100
AcDbEntity
  8
1
100
AcDbCircle
 10
380.0312676648418
 20
286.6267241387026
 30
0.0
 40
0.5
100
AcDbArc
 50
90.0
 51
180.0
  0
LINE
  5
15A7
330
18
100
AcDbEntity
  8
1
100
AcDbLine
 10
376.0312676648418
 20
283.6267241387026
 30
0.0
 11
375.0312676648418
 21
283.6267241387026
 31
0.0
  0
LINE
  5
15A8
330
18
100
AcDbEntity
  8
1
100
AcDbLine
 10
376.0312676648418
 20
283.6267241387026
 30
0.0
 11
376.0312676648418
 21
283.1267241387026
 31
0.0
  0
LINE
  5
15A9
330
18
100
AcDbEntity
  8
1
100
AcDbLine
 10
389.0312676648418
 20
284.1626225235648
 30
0.0
 11
389.0312676648418
 21
287.1267241387026
 31
0.0
  0
LINE
  5
15AA
330
18
100
AcDbEntity
  8
1
100
AcDbLine
 10
388.0312676648418
 20
284.1626225235648
 30
0.0
 11
388.0312676648418
 21
287.1267241387026
 31
0.0
  0
LINE
  5
15AB
330
18
100
AcDbEntity
  8
1
100
AcDbLine
 10
390.5312676648418
 20
288.1267241387026
 30
0.0
 11
389.0312676648418
 21
288.1267241387026
 31
0.0
  0
LINE
  5
15AC
330
18
100
AcDbEntity
  8
1
100
AcDbLine
 10
390.5312676648418
 20
287.1267241387026
 30
0.0
 11
389.0312676648418
 21
287.1267241387026
 31
0.0
  0
LINE
  5
15AD
330
18
100
AcDbEntity
  8
1
100
AcDbLine
 10
389.0312676648418
 20
288.1267241387026
 30
0.0
 11
389.0312676648418
 21
291.0908257538403
 31
0.0
  0
LINE
  5
15AE
330
18
100
AcDbEntity
  8
1
100
AcDbLine
 10
385.5312676648418
 20
292.1267241387026
 30
0.0
 11
385.5312676648418
 21
291.6267241387026
 31
0.0
  0
LINE
  5
15AF
330
18
100
AcDbEntity
  8
1
100
AcDbLine
 10
388.0312676648418
 20
288.1267241387026
 30
0.0
 11
386.5312676648418
 21
288.1267241387026
 31
0.0
  0
LINE
  5
15B0
330
18
100
AcDbEntity
  8
1
100
AcDbLine
 10
388.0312676648418
 20
287.1267241387026
 30
0.0
 11
386.5312676648418
 21
287.1267241387026
 31
0.0
  0
LINE
  5
15B1
330
18
100
AcDbEntity
  8
1
100
AcDbLine
 10
388.0312676648418
 20
288.1267241387026
 30
0.0
 11
388.0312676648418
 21
291.0908257538403
 31
0.0
  0
LINE
  5
15B2
330
18
100
AcDbEntity
  8
1
100
AcDbLine
 10
386.5312676648418
 20
287.1267241387026
 30
0.0
 11
386.5312676648418
 21
288.1267241387026
 31
0.0
  0
LINE
  5
15B3
330
18
100
AcDbEntity
  8
1
100
AcDbLine
 10
385.5312676648418
 20
291.6267241387026
 30
0.0
 11
384.5312676648418
 21
291.6267241387026
 31
0.0
  0
LINE
  5
15B4
330
18
100
AcDbEntity
  8
1
100
AcDbLine
 10
390.5312676648418
 20
287.1267241387026
 30
0.0
 11
390.5312676648418
 21
288.1267241387026
 31
0.0
  0
LINE
  5
15B5
330
18
100
AcDbEntity
  8
1
100
AcDbLine
 10
383.0312676648418
 20
291.6267241387026
 30
0.0
 11
382.0312676648418
 21
291.6267241387026
 31
0.0
  0
LINE
  5
15B6
330
18
100
AcDbEntity
  8
1
100
AcDbLine
 10
382.0312676648418
 20
292.1267241387026
 30
0.0
 11
382.0312676648418
 21
291.6267241387026
 31
0.0
  0
LINE
  5
15B7
330
18
100
AcDbEntity
  8
1
100
AcDbLine
 10
385.5312676648418
 20
283.6267241387026
 30
0.0
 11
385.5312676648418
 21
283.1267241387026
 31
0.0
  0
LINE
  5
15B8
330
18
100
AcDbEntity
  8
1
100
AcDbLine
 10
385.5312676648418
 20
283.6267241387026
 30
0.0
 11
384.5312676648418
 21
283.6267241387026
 31
0.0
  0
LINE
  5
15B9
330
18
100
AcDbEntity
  8
1
100
AcDbLine
 10
383.0312676648418
 20
283.6267241387026
 30
0.0
 11
382.0312676648418
 21
283.6267241387026
 31
0.0
  0
LINE
  5
15BA
330
18
100
AcDbEntity
  8
1
100
AcDbLine
 10
382.0312676648418
 20
283.6267241387026
 30
0.0
 11
382.0312676648418
 21
283.1267241387026
 31
0.0
  0
INSERT
  5
15BB
330
18
100
AcDbEntity
  8
1
100
AcDbBlockReference
  2
A$C0EE84D96
 10
388.5312676648418
 20
301.6267241387026
 30
0.0
  0
TEXT
  5
15BC
330
18
100
AcDbEntity
  8
1
 48
0.5
100
AcDbText
 10
387.231775279055
 20
304.2587038341341
 30
0.0
 40
2.0
  1
Ｅ
  7
ＭＳゴシック
 72
     4
 11
388.5312676648418
 21
305.1267241387026
 31
0.0
100
AcDbText
  0
TEXT
  5
15BD
330
18
100
AcDbEntity
  8
1
 48
0.5
100
AcDbText
 10
387.9826962362703
 20
296.6938669958455
 30
0.0
 40
1.5
  1
1
  7
ＭＳ明朝
 72
     4
 11
388.5312676648418
 21
297.4267241387027
 31
0.0
100
AcDbText
  0
LINE
  5
15BE
330
18
100
AcDbEntity
  8
1
100
AcDbLine
 10
402.0312676648418
 20
293.1267241387026
 30
0.0
 11
394.0312676648418
 21
293.1267241387026
 31
0.0
  0
CIRCLE
  5
15BF
330
18
100
AcDbEntity
  8
1
100
AcDbCircle
 10
398.0312676648418
 20
287.6267241387026
 30
0.0
 40
3.5
  0
LINE
  5
15C0
330
18
100
AcDbEntity
  8
1
100
AcDbLine
 10
401.0312676648418
 20
292.1267241387026
 30
0.0
 11
395.0312676648418
 21
292.1267241387026
 31
0.0
  0
LINE
  5
15C1
330
18
100
AcDbEntity
  8
1
100
AcDbLine
 10
401.0312676648418
 20
283.1267241387026
 30
0.0
 11
395.0312676648418
 21
283.1267241387026
 31
0.0
  0
LINE
  5
15C2
330
18
100
AcDbEntity
  8
1
100
AcDbLine
 10
402.0312676648418
 20
294.1267241387026
 30
0.0
 11
392.5312676648418
 21
294.1267241387026
 31
0.0
  0
LINE
  5
15C3
330
18
100
AcDbEntity
  8
1
100
AcDbLine
 10
397.5312676648418
 20
284.1626225235648
 30
0.0
 11
397.5312676648418
 21
287.1267241387026
 31
0.0
  0
LINE
  5
15C4
330
18
100
AcDbEntity
  8
1
100
AcDbLine
 10
398.5312676648418
 20
284.1626225235648
 30
0.0
 11
398.5312676648418
 21
287.1267241387026
 31
0.0
  0
LINE
  5
15C5
330
18
100
AcDbEntity
  8
1
100
AcDbLine
 10
395.0312676648418
 20
291.6267241387026
 30
0.0
 11
394.0312676648418
 21
291.6267241387026
 31
0.0
  0
LINE
  5
15C6
330
18
100
AcDbEntity
  8
1
100
AcDbLine
 10
395.0312676648418
 20
292.1267241387026
 30
0.0
 11
395.0312676648418
 21
291.6267241387026
 31
0.0
  0
LINE
  5
15C7
330
18
100
AcDbEntity
  8
1
100
AcDbLine
 10
397.5312676648418
 20
288.1267241387026
 30
0.0
 11
396.0312676648418
 21
288.1267241387026
 31
0.0
  0
LINE
  5
15C8
330
18
100
AcDbEntity
  8
1
100
AcDbLine
 10
397.5312676648418
 20
287.1267241387026
 30
0.0
 11
396.0312676648418
 21
287.1267241387026
 31
0.0
  0
LINE
  5
15C9
330
18
100
AcDbEntity
  8
1
100
AcDbLine
 10
397.5312676648418
 20
288.1267241387026
 30
0.0
 11
397.5312676648418
 21
291.0908257538403
 31
0.0
  0
LINE
  5
15CA
330
18
100
AcDbEntity
  8
1
100
AcDbLine
 10
396.0312676648418
 20
287.1267241387026
 30
0.0
 11
396.0312676648418
 21
288.1267241387026
 31
0.0
  0
LINE
  5
15CB
330
18
100
AcDbEntity
  8
1
100
AcDbLine
 10
400.0312676648418
 20
288.1267241387026
 30
0.0
 11
398.5312676648418
 21
288.1267241387026
 31
0.0
  0
LINE
  5
15CC
330
18
100
AcDbEntity
  8
1
100
AcDbLine
 10
400.0312676648418
 20
287.1267241387026
 30
0.0
 11
398.5312676648418
 21
287.1267241387026
 31
0.0
  0
LINE
  5
15CD
330
18
100
AcDbEntity
  8
1
100
AcDbLine
 10
400.0312676648418
 20
287.1267241387026
 30
0.0
 11
400.0312676648418
 21
288.1267241387026
 31
0.0
  0
LINE
  5
15CE
330
18
100
AcDbEntity
  8
1
100
AcDbLine
 10
398.5312676648418
 20
288.1267241387026
 30
0.0
 11
398.5312676648418
 21
291.0908257538403
 31
0.0
  0
LINE
  5
15CF
330
18
100
AcDbEntity
  8
1
100
AcDbLine
 10
395.0312676648418
 20
283.6267241387026
 30
0.0
 11
394.0312676648418
 21
283.6267241387026
 31
0.0
  0
LINE
  5
15D0
330
18
100
AcDbEntity
  8
1
100
AcDbLine
 10
395.0312676648418
 20
283.6267241387026
 30
0.0
 11
395.0312676648418
 21
283.1267241387026
 31
0.0
  0
LINE
  5
15D1
330
18
100
AcDbEntity
  8
1
100
AcDbLine
 10
391.5312676648418
 20
292.1267241387026
 30
0.0
 11
391.5312676648418
 21
291.6267241387026
 31
0.0
  0
LINE
  5
15D2
330
18
100
AcDbEntity
  8
1
100
AcDbLine
 10
392.5312676648418
 20
291.6267241387026
 30
0.0
 11
391.5312676648418
 21
291.6267241387026
 31
0.0
  0
LINE
  5
15D3
330
18
100
AcDbEntity
  8
1
100
AcDbLine
 10
391.5312676648418
 20
283.6267241387026
 30
0.0
 11
391.5312676648418
 21
283.1267241387026
 31
0.0
  0
LINE
  5
15D4
330
18
100
AcDbEntity
  8
1
100
AcDbLine
 10
392.5312676648418
 20
283.6267241387026
 30
0.0
 11
391.5312676648418
 21
283.6267241387026
 31
0.0
  0
LINE
  5
15D5
330
18
100
AcDbEntity
  8
1
100
AcDbLine
 10
408.0312676648418
 20
284.1626225235648
 30
0.0
 11
408.0312676648418
 21
287.1267241387026
 31
0.0
  0
LINE
  5
15D6
330
18
100
AcDbEntity
  8
1
100
AcDbLine
 10
407.0312676648418
 20
284.1626225235648
 30
0.0
 11
407.0312676648418
 21
287.1267241387026
 31
0.0
  0
LINE
  5
15D7
330
18
100
AcDbEntity
  8
1
100
AcDbLine
 10
408.0312676648418
 20
288.1267241387026
 30
0.0
 11
408.0312676648418
 21
291.0908257538403
 31
0.0
  0
LINE
  5
15D8
330
18
100
AcDbEntity
  8
1
100
AcDbLine
 10
404.5312676648418
 20
292.1267241387026
 30
0.0
 11
404.5312676648418
 21
291.6267241387026
 31
0.0
  0
LINE
  5
15D9
330
18
100
AcDbEntity
  8
1
100
AcDbLine
 10
405.5312676648417
 20
287.1267241387026
 30
0.0
 11
405.5312676648417
 21
288.1267241387026
 31
0.0
  0
LINE
  5
15DA
330
18
100
AcDbEntity
  8
1
100
AcDbLine
 10
407.0312676648418
 20
288.1267241387026
 30
0.0
 11
407.0312676648418
 21
291.0908257538403
 31
0.0
  0
LINE
  5
15DB
330
18
100
AcDbEntity
  8
1
100
AcDbLine
 10
407.0312676648418
 20
288.1267241387026
 30
0.0
 11
405.5312676648417
 21
288.1267241387026
 31
0.0
  0
LINE
  5
15DC
330
18
100
AcDbEntity
  8
1
100
AcDbLine
 10
407.0312676648418
 20
287.1267241387026
 30
0.0
 11
405.5312676648417
 21
287.1267241387026
 31
0.0
  0
LINE
  5
15DD
330
18
100
AcDbEntity
  8
1
100
AcDbLine
 10
404.5312676648418
 20
291.6267241387026
 30
0.0
 11
403.5312676648418
 21
291.6267241387026
 31
0.0
  0
LINE
  5
15DE
330
18
100
AcDbEntity
  8
1
100
AcDbLine
 10
402.0312676648418
 20
291.6267241387026
 30
0.0
 11
401.0312676648418
 21
291.6267241387026
 31
0.0
  0
LINE
  5
15DF
330
18
100
AcDbEntity
  8
1
100
AcDbLine
 10
401.0312676648418
 20
292.1267241387026
 30
0.0
 11
401.0312676648418
 21
291.6267241387026
 31
0.0
  0
LINE
  5
15E0
330
18
100
AcDbEntity
  8
1
100
AcDbLine
 10
404.5312676648418
 20
283.6267241387026
 30
0.0
 11
404.5312676648418
 21
283.1267241387026
 31
0.0
  0
LINE
  5
15E1
330
18
100
AcDbEntity
  8
1
100
AcDbLine
 10
404.5312676648418
 20
283.6267241387026
 30
0.0
 11
403.5312676648418
 21
283.6267241387026
 31
0.0
  0
LINE
  5
15E2
330
18
100
AcDbEntity
  8
1
100
AcDbLine
 10
402.0312676648418
 20
283.6267241387026
 30
0.0
 11
401.0312676648418
 21
283.6267241387026
 31
0.0
  0
LINE
  5
15E3
330
18
100
AcDbEntity
  8
1
100
AcDbLine
 10
401.0312676648418
 20
283.6267241387026
 30
0.0
 11
401.0312676648418
 21
283.1267241387026
 31
0.0
  0
LINE
  5
15E4
330
18
100
AcDbEntity
  8
1
 48
0.5
100
AcDbLine
 10
398.0312676648418
 20
301.1267241387026
 30
0.0
 11
407.5312676648418
 21
301.1267241387026
 31
0.0
  0
TEXT
  5
15E5
330
18
100
AcDbEntity
  8
1
 48
0.5
100
AcDbText
 10
399.5325367003747
 20
304.2180946970783
 30
0.0
 40
2.0
  1
電 源
  7
ＭＳゴシック
 72
     4
 11
402.7812676648418
 21
305.1267241387026
 31
0.0
100
AcDbText
  0
LINE
  5
15E6
330
18
100
AcDbEntity
  8
1
100
AcDbLine
 10
398.0312676648418
 20
299.6267241387026
 30
0.0
 11
398.0312676648418
 21
301.1267241387026
 31
0.0
  0
TEXT
  5
15E7
330
18
100
AcDbEntity
  8
1
 48
0.5
100
AcDbText
 10
397.4826962362703
 20
296.6938669958455
 30
0.0
 40
1.5
  1
2
  7
ＭＳ明朝
 72
     4
 11
398.0312676648418
 21
297.4267241387027
 31
0.0
100
AcDbText
  0
LINE
  5
15E8
330
18
100
AcDbEntity
  8
1
100
AcDbLine
 10
407.5312676648418
 20
299.6267241387026
 30
0.0
 11
407.5312676648418
 21
301.1267241387026
 31
0.0
  0
TEXT
  5
15E9
330
18
100
AcDbEntity
  8
1
 48
0.5
100
AcDbText
 10
406.9826962362704
 20
296.6938669958455
 30
0.0
 40
1.5
  1
3
  7
ＭＳ明朝
 72
     4
 11
407.5312676648418
 21
297.4267241387027
 31
0.0
100
AcDbText
  0
ARC
  5
15EA
330
18
100
AcDbEntity
  8
1
  6
ByBlock
100
AcDbCircle
 10
281.2449875068253
 20
342.0267241387026
 30
0.0
 40
1.5
100
AcDbArc
 50
90.0
 51
180.0
  0
LINE
  5
15EB
330
18
100
AcDbEntity
  8
1
100
AcDbLine
 10
278.3449875068254
 20
333.5267241387025
 30
0.0
 11
286.3449875068254
 21
333.5267241387025
 31
0.0
  0
LINE
  5
15EC
330
18
100
AcDbEntity
  8
1
  6
ByBlock
100
AcDbLine
 10
279.7449875068252
 20
341.3267241387025
 30
0.0
 11
284.9449875068255
 21
341.3267241387025
 31
0.0
  0
LINE
  5
15ED
330
18
100
AcDbEntity
  8
1
  6
ByBlock
100
AcDbLine
 10
280.2449875068252
 20
340.5267241387025
 30
0.0
 11
284.4449875068253
 21
340.5267241387025
 31
0.0
  0
LINE
  5
15EE
330
18
100
AcDbEntity
  8
1
100
AcDbLine
 10
278.3449875068254
 20
340.5267241387025
 30
0.0
 11
286.3449875068254
 21
340.5267241387025
 31
0.0
  0
LINE
  5
15EF
330
18
100
AcDbEntity
  8
1
100
AcDbLine
 10
278.3449875068254
 20
339.0267241387025
 30
0.0
 11
286.3449875068254
 21
339.0267241387025
 31
0.0
  0
LINE
  5
15F0
330
18
100
AcDbEntity
  8
1
100
AcDbLine
 10
278.3449875068254
 20
339.5267241387025
 30
0.0
 11
286.3449875068254
 21
339.5267241387025
 31
0.0
  0
LINE
  5
15F1
330
18
100
AcDbEntity
  8
1
100
AcDbLine
 10
268.8449875068254
 20
347.5267241387026
 30
0.0
 11
268.8449875068254
 21
333.5267241387025
 31
0.0
  0
LINE
  5
15F2
330
18
100
AcDbEntity
  8
1
100
AcDbLine
 10
267.3449875068254
 20
347.5267241387026
 30
0.0
 11
267.3449875068254
 21
333.5267241387025
 31
0.0
  0
LINE
  5
15F3
330
18
100
AcDbEntity
  8
1
100
AcDbLine
 10
276.8449875068254
 20
347.5267241387025
 30
0.0
 11
276.8449875068254
 21
333.5267241387025
 31
0.0
  0
LINE
  5
15F4
330
18
100
AcDbEntity
  8
1
100
AcDbLine
 10
278.3449875068254
 20
347.5267241387025
 30
0.0
 11
278.3449875068254
 21
333.5267241387025
 31
0.0
  0
ARC
  5
15F5
330
18
100
AcDbEntity
  8
1
100
AcDbCircle
 10
264.8449875068254
 20
343.5267241387025
 30
0.0
 40
2.0
100
AcDbArc
 50
0.0
 51
90.0
  0
ARC
  5
15F6
330
18
100
AcDbEntity
  8
1
100
AcDbCircle
 10
271.3449875068254
 20
343.5267241387025
 30
0.0
 40
2.0
100
AcDbArc
 50
90.0
 51
180.0
  0
ARC
  5
15F7
330
18
100
AcDbEntity
  8
1
100
AcDbCircle
 10
274.3449875068254
 20
343.5267241387025
 30
0.0
 40
2.0
100
AcDbArc
 50
0.0
 51
90.0
  0
LINE
  5
15F8
330
18
100
AcDbEntity
  8
1
100
AcDbLine
 10
268.8449875068254
 20
333.5267241387025
 30
0.0
 11
276.8449875068254
 21
333.5267241387025
 31
0.0
  0
LINE
  5
15F9
330
18
100
AcDbEntity
  8
1
100
AcDbLine
 10
268.8449875068254
 20
342.0267241387026
 30
0.0
 11
276.8449875068254
 21
342.0267241387025
 31
0.0
  0
LINE
  5
15FA
330
18
100
AcDbEntity
  8
1
100
AcDbLine
 10
269.3449875068254
 20
342.5267241387026
 30
0.0
 11
276.3449875068254
 21
342.5267241387025
 31
0.0
  0
LINE
  5
15FB
330
18
100
AcDbEntity
  8
1
100
AcDbLine
 10
268.8449875068254
 20
339.5267241387025
 30
0.0
 11
276.8449875068254
 21
339.5267241387025
 31
0.0
  0
LINE
  5
15FC
330
18
100
AcDbEntity
  8
1
100
AcDbLine
 10
268.8449875068254
 20
339.0267241387026
 30
0.0
 11
276.8449875068254
 21
339.0267241387025
 31
0.0
  0
LINE
  5
15FD
330
18
100
AcDbEntity
  8
1
100
AcDbLine
 10
268.8449875068254
 20
340.5267241387026
 30
0.0
 11
276.8449875068254
 21
340.5267241387025
 31
0.0
  0
LINE
  5
15FE
330
18
100
AcDbEntity
  8
1
100
AcDbLine
 10
267.3449875068254
 20
340.5267241387026
 30
0.0
 11
267.3449875068254
 21
333.5267241387025
 31
0.0
  0
LINE
  5
15FF
330
18
100
AcDbEntity
  8
1
100
AcDbLine
 10
266.3449875068254
 20
340.5267241387026
 30
0.0
 11
266.3449875068254
 21
339.5267241387025
 31
0.0
  0
LINE
  5
1600
330
18
100
AcDbEntity
  8
1
100
AcDbLine
 10
266.8449875068254
 20
343.5267241387025
 30
0.0
 11
266.8449875068254
 21
342.0267241387026
 31
0.0
  0
LINE
  5
1601
330
18
100
AcDbEntity
  8
1
100
AcDbLine
 10
269.3449875068254
 20
343.5267241387025
 30
0.0
 11
269.3449875068254
 21
342.0267241387026
 31
0.0
  0
LINE
  5
1602
330
18
100
AcDbEntity
  8
1
100
AcDbLine
 10
269.8449875068254
 20
340.5267241387026
 30
0.0
 11
269.8449875068254
 21
339.5267241387025
 31
0.0
  0
LINE
  5
1603
330
18
100
AcDbEntity
  8
1
100
AcDbLine
 10
276.3449875068254
 20
343.5267241387025
 30
0.0
 11
276.3449875068254
 21
342.0267241387025
 31
0.0
  0
LINE
  5
1604
330
18
100
AcDbEntity
  8
1
100
AcDbLine
 10
275.8449875068254
 20
340.5267241387025
 30
0.0
 11
275.8449875068254
 21
339.5267241387025
 31
0.0
  0
ARC
  5
1605
330
18
100
AcDbEntity
  8
1
  6
ByBlock
100
AcDbCircle
 10
280.2449875068252
 20
341.0267241387026
 30
0.0
 40
0.5
100
AcDbArc
 50
180.0
 51
270.0
  0
LINE
  5
1606
330
18
100
AcDbEntity
  8
1
  6
ByBlock
100
AcDbLine
 10
279.7449875068252
 20
341.0267241387025
 30
0.0
 11
279.7449875068252
 21
342.0267241387025
 31
0.0
  0
LINE
  5
1607
330
18
100
AcDbEntity
  8
1
100
AcDbLine
 10
279.3449875068254
 20
340.5267241387025
 30
0.0
 11
279.3449875068254
 21
339.5267241387025
 31
0.0
  0
LINE
  5
1608
330
18
100
AcDbEntity
  8
1
100
AcDbLine
 10
271.3449875068254
 20
345.5267241387026
 30
0.0
 11
274.3449875068254
 21
345.5267241387026
 31
0.0
  0
LINE
  5
1609
330
18
100
AcDbEntity
  8
1
100
AcDbLine
 10
267.3449875068254
 20
347.5267241387026
 30
0.0
 11
268.8449875068254
 21
347.5267241387026
 31
0.0
  0
ARC
  5
160A
330
18
100
AcDbEntity
  8
1
100
AcDbCircle
 10
263.3449875068254
 20
345.5267241387025
 30
0.0
 40
0.5
100
AcDbArc
 50
180.0
 51
0.0
  0
LINE
  5
160B
330
18
100
AcDbEntity
  8
1
100
AcDbLine
 10
276.8449875068254
 20
347.5267241387025
 30
0.0
 11
278.3449875068254
 21
347.5267241387025
 31
0.0
  0
ARC
  5
160C
330
18
100
AcDbEntity
  8
1
100
AcDbCircle
 10
272.8449875068254
 20
345.5267241387025
 30
0.0
 40
0.5
100
AcDbArc
 50
180.0
 51
0.0
  0
ARC
  5
160D
330
18
100
AcDbEntity
  8
1
  6
ByBlock
100
AcDbCircle
 10
283.444987506825
 20
342.0267241387026
 30
0.0
 40
1.5
100
AcDbArc
 50
0.0
 51
90.0
  0
LINE
  5
160E
330
18
100
AcDbEntity
  8
1
  6
ByBlock
100
AcDbLine
 10
284.9449875068253
 20
341.0267241387025
 30
0.0
 11
284.9449875068253
 21
342.0267241387025
 31
0.0
  0
ARC
  5
160F
330
18
100
AcDbEntity
  8
1
  6
ByBlock
100
AcDbCircle
 10
284.4449875068251
 20
341.0267241387026
 30
0.0
 40
0.5
100
AcDbArc
 50
270.0
 51
0.0
  0
LINE
  5
1610
330
18
100
AcDbEntity
  8
1
100
AcDbLine
 10
285.3449875068254
 20
340.5267241387025
 30
0.0
 11
285.3449875068254
 21
339.5267241387025
 31
0.0
  0
LINE
  5
1611
330
18
100
AcDbEntity
  8
1
100
AcDbLine
 10
286.3449875068254
 20
340.5267241387025
 30
0.0
 11
286.3449875068254
 21
333.3267241387026
 31
0.0
  0
LINE
  5
1612
330
18
100
AcDbEntity
  8
1
  6
ByBlock
100
AcDbLine
 10
282.7449875068253
 20
340.5267241387025
 30
0.0
 11
281.9449875068253
 21
341.3267241387025
 31
0.0
  0
LINE
  5
1613
330
18
100
AcDbEntity
  8
1
  6
ByBlock
100
AcDbLine
 10
281.2449875068253
 20
343.5267241387025
 30
0.0
 11
283.4449875068253
 21
343.5267241387025
 31
0.0
  0
ARC
  5
1614
330
18
100
AcDbEntity
  8
1
100
AcDbCircle
 10
361.2812676648418
 20
341.8267241387026
 30
0.0
 40
2.0
100
AcDbArc
 50
90.0
 51
180.0
  0
LINE
  5
1615
330
18
100
AcDbEntity
  8
1
100
AcDbLine
 10
381.8812676648419
 20
339.8267241387026
 30
0.0
 11
389.6812676648418
 21
339.8267241387025
 31
0.0
  0
LINE
  5
1616
330
18
100
AcDbEntity
  8
1
100
AcDbLine
 10
385.7812676648418
 20
343.1600574720359
 30
0.0
 11
381.8812676648419
 21
343.1600574720359
 31
0.0
  0
LINE
  5
1617
330
18
100
AcDbEntity
  8
1
100
AcDbLine
 10
381.8812676648419
 20
343.1600574720359
 30
0.0
 11
381.8812676648419
 21
339.8267241387025
 31
0.0
  0
LINE
  5
1618
330
18
100
AcDbEntity
  8
1
100
AcDbLine
 10
389.6812676648418
 20
343.1600574720359
 30
0.0
 11
389.6812676648418
 21
339.8267241387025
 31
0.0
  0
LINE
  5
1619
330
18
100
AcDbEntity
  8
1
100
AcDbLine
 10
385.7812676648418
 20
343.1600574720359
 30
0.0
 11
389.6812676648418
 21
343.1600574720359
 31
0.0
  0
LINE
  5
161A
330
18
100
AcDbEntity
  8
1
100
AcDbLine
 10
503.2812676648418
 20
341.8267241387026
 30
0.0
 11
503.2812676648418
 21
273.8267241387026
 31
0.0
  0
LWPOLYLINE
  5
161B
330
18
100
AcDbEntity
  8
1
370
    50
100
AcDbPolyline
 90
        6
 70
     1
 43
0.0
 10
458.4544727455988
 20
328.9328555531
 10
463.108062584085
 20
328.9328555531
 42
0.5773502691896246
 10
463.1946651244634
 20
329.0828555531
 10
460.8678702052203
 20
333.1129825720222
 42
0.5773502691896246
 10
460.6946651244635
 20
333.1129825720222
 10
458.3678702052203
 20
329.0828555531
 42
0.5773502691896271
  0
TEXT
  5
161C
330
18
100
AcDbEntity
  8
1
100
AcDbText
 10
457.4898390934134
 20
329.2136333482754
 30
0.0
 40
3.0
  1
！
 41
1.5
  7
ＭＳ明朝
 72
     4
 11
460.7812676648419
 21
330.7479190625611
 31
0.0
100
AcDbText
  0
TEXT
  5
161D
330
18
100
AcDbEntity
  8
1
100
AcDbText
 10
466.3457346699179
 20
329.3267241387026
 30
0.0
 40
4.0
  1
盤内専用
 41
1.1
  7
ＭＳゴシック
 72
     1
 11
477.7812676648418
 21
329.3267241387026
 31
0.0
100
AcDbText
  0
LWPOLYLINE
  5
161E
330
18
100
AcDbEntity
  8
1
370
    50
100
AcDbPolyline
 90
        4
 70
     1
 43
0.0
 10
454.7812676648418
 20
316.8267241387026
 10
492.7812676648418
 20
316.8267241387026
 10
492.7812676648418
 20
334.8267241387026
 10
454.7812676648418
 20
334.8267241387026
  0
LWPOLYLINE
  5
161F
330
18
100
AcDbEntity
  8
1
 48
0.5
100
AcDbPolyline
 90
        4
 70
     1
 43
0.0
 10
453.7812676648418
 20
315.8267241387026
 10
493.7812676648418
 20
315.8267241387026
 10
493.7812676648418
 20
335.8267241387026
 10
453.7812676648418
 20
335.8267241387026
  0
ARC
  5
1620
330
18
100
AcDbEntity
  8
1
100
AcDbCircle
 10
482.5312676648418
 20
286.6267241387026
 30
0.0
 40
0.5
100
AcDbArc
 50
0.0
 51
90.0
  0
LINE
  5
1621
330
18
100
AcDbEntity
  8
1
100
AcDbLine
 10
487.5312676648418
 20
294.1267241387026
 30
0.0
 11
468.5312676648418
 21
294.1267241387026
 31
0.0
  0
LINE
  5
1622
330
18
100
AcDbEntity
  8
1
100
AcDbLine
 10
487.5312676648418
 20
281.1267241387026
 30
0.0
 11
468.5312676648418
 21
281.1267241387026
 31
0.0
  0
CIRCLE
  5
1623
330
18
100
AcDbEntity
  8
1
100
AcDbCircle
 10
483.5312676648418
 20
287.6267241387026
 30
0.0
 40
2.6
  0
LINE
  5
1624
330
18
100
AcDbEntity
  8
1
100
AcDbLine
 10
487.5312676648418
 20
282.1267241387026
 30
0.0
 11
479.5312676648418
 21
282.1267241387026
 31
0.0
  0
LINE
  5
1625
330
18
100
AcDbEntity
  8
1
100
AcDbLine
 10
486.5312676648418
 20
283.1267241387026
 30
0.0
 11
480.5312676648418
 21
283.1267241387026
 31
0.0
  0
LINE
  5
1626
330
18
100
AcDbEntity
  8
1
100
AcDbLine
 10
487.5312676648418
 20
293.1267241387026
 30
0.0
 11
479.5312676648418
 21
293.1267241387026
 31
0.0
  0
LINE
  5
1627
330
18
100
AcDbEntity
  8
1
100
AcDbLine
 10
486.5312676648418
 20
292.1267241387026
 30
0.0
 11
480.5312676648418
 21
292.1267241387026
 31
0.0
  0
TEXT
  5
1628
330
18
100
AcDbEntity
  8
1
100
AcDbText
 10
455.7812676648418
 20
325.3267241387026
 30
0.0
 40
2.5
  1
端子カバーは付いていません。
 41
0.8
  7
ＭＳゴシック
100
AcDbText
  0
TEXT
  5
1629
330
18
100
AcDbEntity
  8
1
100
AcDbText
 10
455.7812676648418
 20
321.8267241387026
 30
0.0
 40
2.5
  1
人が触れるおそれがある場合は
 41
0.8
  7
ＭＳゴシック
100
AcDbText
  0
TEXT
  5
162A
330
18
100
AcDbEntity
  8
1
100
AcDbText
 10
455.7812676648418
 20
318.3267241387026
 30
0.0
 40
2.5
  1
端子部に覆いを付けて下さい。
 41
0.8
  7
ＭＳゴシック
100
AcDbText
  0
ARC
  5
162B
330
18
100
AcDbEntity
  8
1
100
AcDbCircle
 10
482.5312676648418
 20
288.6267241387026
 30
0.0
 40
0.5
100
AcDbArc
 50
270.0
 51
0.0
  0
LINE
  5
162C
330
18
100
AcDbEntity
  8
1
100
AcDbLine
 10
468.5312676648418
 20
281.1267241387026
 30
0.0
 11
468.5312676648418
 21
294.1267241387026
 31
0.0
  0
LINE
  5
162D
330
18
100
AcDbEntity
  8
1
100
AcDbLine
 10
478.0312676648418
 20
281.1267241387026
 30
0.0
 11
478.0312676648418
 21
294.1267241387026
 31
0.0
  0
LINE
  5
162E
330
18
100
AcDbEntity
  8
1
100
AcDbLine
 10
479.5312676648418
 20
281.1267241387026
 30
0.0
 11
479.5312676648418
 21
294.1267241387026
 31
0.0
  0
LINE
  5
162F
330
18
100
AcDbEntity
  8
1
100
AcDbLine
 10
470.0312676648418
 20
281.1267241387026
 30
0.0
 11
470.0312676648418
 21
294.1267241387026
 31
0.0
  0
LINE
  5
1630
330
18
100
AcDbEntity
  8
1
100
AcDbLine
 10
449.5312676648418
 20
281.1267241387026
 30
0.0
 11
449.5312676648418
 21
294.1267241387026
 31
0.0
  0
LINE
  5
1631
330
18
100
AcDbEntity
  8
1
100
AcDbLine
 10
451.0312676648418
 20
281.1267241387026
 30
0.0
 11
451.0312676648418
 21
294.1267241387026
 31
0.0
  0
LINE
  5
1632
330
18
100
AcDbEntity
  8
1
100
AcDbLine
 10
460.5312676648418
 20
281.1267241387026
 30
0.0
 11
460.5312676648418
 21
294.1267241387026
 31
0.0
  0
LINE
  5
1633
330
18
100
AcDbEntity
  8
1
100
AcDbLine
 10
459.0312676648418
 20
281.1267241387026
 30
0.0
 11
459.0312676648418
 21
294.1267241387026
 31
0.0
  0
LINE
  5
1634
330
18
100
AcDbEntity
  8
1
100
AcDbLine
 10
430.5312676648418
 20
281.1267241387026
 30
0.0
 11
430.5312676648418
 21
294.1267241387026
 31
0.0
  0
LINE
  5
1635
330
18
100
AcDbEntity
  8
1
100
AcDbLine
 10
432.0312676648418
 20
281.1267241387026
 30
0.0
 11
432.0312676648418
 21
294.1267241387026
 31
0.0
  0
LINE
  5
1636
330
18
100
AcDbEntity
  8
1
100
AcDbLine
 10
440.0312676648418
 20
281.1267241387026
 30
0.0
 11
440.0312676648418
 21
294.1267241387026
 31
0.0
  0
LINE
  5
1637
330
18
100
AcDbEntity
  8
1
100
AcDbLine
 10
441.5312676648418
 20
281.1267241387026
 30
0.0
 11
441.5312676648418
 21
294.1267241387026
 31
0.0
  0
LINE
  5
1638
330
18
100
AcDbEntity
  8
1
100
AcDbLine
 10
421.0312676648418
 20
281.1267241387026
 30
0.0
 11
421.0312676648418
 21
294.1267241387026
 31
0.0
  0
LINE
  5
1639
330
18
100
AcDbEntity
  8
1
100
AcDbLine
 10
422.5312676648418
 20
281.1267241387026
 30
0.0
 11
422.5312676648418
 21
294.1267241387026
 31
0.0
  0
LINE
  5
163A
330
18
100
AcDbEntity
  8
1
100
AcDbLine
 10
413.0312676648418
 20
281.1267241387026
 30
0.0
 11
413.0312676648418
 21
294.1267241387026
 31
0.0
  0
LINE
  5
163B
330
18
100
AcDbEntity
  8
1
100
AcDbLine
 10
411.5312676648418
 20
281.1267241387026
 30
0.0
 11
411.5312676648418
 21
294.1267241387026
 31
0.0
  0
LINE
  5
163C
330
18
100
AcDbEntity
  8
1
100
AcDbLine
 10
449.5312676648418
 20
282.1267241387026
 30
0.0
 11
441.5312676648418
 21
282.1267241387026
 31
0.0
  0
LINE
  5
163D
330
18
100
AcDbEntity
  8
1
100
AcDbLine
 10
449.5312676648418
 20
281.1267241387026
 30
0.0
 11
440.0312676648418
 21
281.1267241387026
 31
0.0
  0
LINE
  5
163E
330
18
100
AcDbEntity
  8
1
100
AcDbLine
 10
430.5312676648418
 20
282.1267241387026
 30
0.0
 11
422.5312676648418
 21
282.1267241387026
 31
0.0
  0
LINE
  5
163F
330
18
100
AcDbEntity
  8
1
100
AcDbLine
 10
430.5312676648418
 20
281.1267241387026
 30
0.0
 11
421.0312676648418
 21
281.1267241387026
 31
0.0
  0
LINE
  5
1640
330
18
100
AcDbEntity
  8
1
100
AcDbLine
 10
421.0312676648418
 20
282.1267241387026
 30
0.0
 11
413.0312676648418
 21
282.1267241387026
 31
0.0
  0
LINE
  5
1641
330
18
100
AcDbEntity
  8
1
100
AcDbLine
 10
421.0312676648418
 20
281.1267241387026
 30
0.0
 11
411.5312676648418
 21
281.1267241387026
 31
0.0
  0
LINE
  5
1642
330
18
100
AcDbEntity
  8
1
100
AcDbLine
 10
440.0312676648418
 20
282.1267241387026
 30
0.0
 11
432.0312676648418
 21
282.1267241387026
 31
0.0
  0
LINE
  5
1643
330
18
100
AcDbEntity
  8
1
100
AcDbLine
 10
440.0312676648418
 20
281.1267241387026
 30
0.0
 11
430.5312676648418
 21
281.1267241387026
 31
0.0
  0
LINE
  5
1644
330
18
100
AcDbEntity
  8
1
100
AcDbLine
 10
468.5312676648418
 20
281.1267241387026
 30
0.0
 11
459.0312676648418
 21
281.1267241387026
 31
0.0
  0
LINE
  5
1645
330
18
100
AcDbEntity
  8
1
100
AcDbLine
 10
468.5312676648418
 20
282.1267241387026
 30
0.0
 11
460.5312676648418
 21
282.1267241387026
 31
0.0
  0
LINE
  5
1646
330
18
100
AcDbEntity
  8
1
100
AcDbLine
 10
459.0312676648418
 20
282.1267241387026
 30
0.0
 11
451.0312676648418
 21
282.1267241387026
 31
0.0
  0
LINE
  5
1647
330
18
100
AcDbEntity
  8
1
100
AcDbLine
 10
459.0312676648418
 20
281.1267241387026
 30
0.0
 11
449.5312676648418
 21
281.1267241387026
 31
0.0
  0
LINE
  5
1648
330
18
100
AcDbEntity
  8
1
100
AcDbLine
 10
476.7812676648418
 20
272.4933908053692
 30
0.0
 11
472.8812676648418
 21
272.4933908053692
 31
0.0
  0
LINE
  5
1649
330
18
100
AcDbEntity
  8
1
100
AcDbLine
 10
472.8812676648418
 20
275.8267241387025
 30
0.0
 11
480.6812676648418
 21
275.8267241387026
 31
0.0
  0
LINE
  5
164A
330
18
100
AcDbEntity
  8
1
100
AcDbLine
 10
478.0312676648418
 20
282.1267241387026
 30
0.0
 11
470.0312676648418
 21
282.1267241387026
 31
0.0
  0
LINE
  5
164B
330
18
100
AcDbEntity
  8
1
100
AcDbLine
 10
472.8812676648418
 20
272.4933908053692
 30
0.0
 11
472.8812676648418
 21
275.8267241387026
 31
0.0
  0
LINE
  5
164C
330
18
100
AcDbEntity
  8
1
100
AcDbLine
 10
480.6812676648418
 20
272.4933908053692
 30
0.0
 11
480.6812676648418
 21
275.8267241387026
 31
0.0
  0
LINE
  5
164D
330
18
100
AcDbEntity
  8
1
100
AcDbLine
 10
476.7812676648418
 20
272.4933908053692
 30
0.0
 11
480.6812676648418
 21
272.4933908053692
 31
0.0
  0
TEXT
  5
164E
330
18
100
AcDbEntity
  8
1
 48
0.5
100
AcDbText
 10
435.5832981216946
 20
301.7028662706823
 30
0.0
 40
2.0
  1
接点出力
  7
ＭＳゴシック
 72
     4
 11
440.7812676648418
 21
302.6267241387027
 31
0.0
100
AcDbText
  0
LINE
  5
164F
330
18
100
AcDbEntity
  8
1
100
AcDbLine
 10
447.5312676648418
 20
288.1267241387026
 30
0.0
 11
446.0312676648418
 21
288.1267241387026
 31
0.0
  0
LINE
  5
1650
330
18
100
AcDbEntity
  8
1
100
AcDbLine
 10
447.5312676648418
 20
287.1267241387026
 30
0.0
 11
446.0312676648418
 21
287.1267241387026
 31
0.0
  0
LINE
  5
1651
330
18
100
AcDbEntity
  8
1
100
AcDbLine
 10
448.5312676648418
 20
292.1267241387026
 30
0.0
 11
442.5312676648418
 21
292.1267241387026
 31
0.0
  0
LINE
  5
1652
330
18
100
AcDbEntity
  8
1
100
AcDbLine
 10
449.5312676648418
 20
293.1267241387026
 30
0.0
 11
441.5312676648418
 21
293.1267241387026
 31
0.0
  0
LINE
  5
1653
330
18
100
AcDbEntity
  8
1
100
AcDbLine
 10
449.5312676648418
 20
294.1267241387026
 30
0.0
 11
440.0312676648418
 21
294.1267241387026
 31
0.0
  0
LINE
  5
1654
330
18
100
AcDbEntity
  8
1
100
AcDbLine
 10
448.5312676648418
 20
283.1267241387026
 30
0.0
 11
442.5312676648418
 21
283.1267241387026
 31
0.0
  0
CIRCLE
  5
1655
330
18
100
AcDbEntity
  8
1
100
AcDbCircle
 10
445.5312676648418
 20
287.6267241387026
 30
0.0
 40
3.5
  0
TEXT
  5
1656
330
18
100
AcDbEntity
  8
1
 48
0.5
100
AcDbText
 10
415.2838057359078
 20
304.1216479965707
 30
0.0
 40
2.0
  1
デフロスト
  7
ＭＳゴシック
 72
     4
 11
421.7812676648418
 21
305.1267241387026
 31
0.0
100
AcDbText
  0
LINE
  5
1657
330
18
100
AcDbEntity
  8
1
100
AcDbLine
 10
429.5312676648418
 20
292.1267241387026
 30
0.0
 11
423.5312676648418
 21
292.1267241387026
 31
0.0
  0
LINE
  5
1658
330
18
100
AcDbEntity
  8
1
100
AcDbLine
 10
428.5312676648418
 20
288.1267241387026
 30
0.0
 11
427.0312676648418
 21
288.1267241387026
 31
0.0
  0
LINE
  5
1659
330
18
100
AcDbEntity
  8
1
100
AcDbLine
 10
428.5312676648418
 20
287.1267241387026
 30
0.0
 11
427.0312676648418
 21
287.1267241387026
 31
0.0
  0
LINE
  5
165A
330
18
100
AcDbEntity
  8
1
100
AcDbLine
 10
429.5312676648418
 20
283.1267241387026
 30
0.0
 11
423.5312676648418
 21
283.1267241387026
 31
0.0
  0
LINE
  5
165B
330
18
100
AcDbEntity
  8
1
100
AcDbLine
 10
430.5312676648418
 20
293.1267241387026
 30
0.0
 11
422.5312676648418
 21
293.1267241387026
 31
0.0
  0
LINE
  5
165C
330
18
100
AcDbEntity
  8
1
100
AcDbLine
 10
430.5312676648418
 20
294.1267241387026
 30
0.0
 11
421.0312676648418
 21
294.1267241387026
 31
0.0
  0
CIRCLE
  5
165D
330
18
100
AcDbEntity
  8
1
100
AcDbCircle
 10
426.5312676648418
 20
287.6267241387026
 30
0.0
 40
3.5
  0
CIRCLE
  5
165E
330
18
100
AcDbEntity
  8
1
100
AcDbCircle
 10
417.0312676648418
 20
287.6267241387026
 30
0.0
 40
3.5
  0
LINE
  5
165F
330
18
100
AcDbEntity
  8
1
100
AcDbLine
 10
419.0312676648418
 20
288.1267241387026
 30
0.0
 11
417.5312676648418
 21
288.1267241387026
 31
0.0
  0
LINE
  5
1660
330
18
100
AcDbEntity
  8
1
100
AcDbLine
 10
419.0312676648418
 20
287.1267241387026
 30
0.0
 11
417.5312676648418
 21
287.1267241387026
 31
0.0
  0
LINE
  5
1661
330
18
100
AcDbEntity
  8
1
100
AcDbLine
 10
420.0312676648418
 20
292.1267241387026
 30
0.0
 11
414.0312676648418
 21
292.1267241387026
 31
0.0
  0
LINE
  5
1662
330
18
100
AcDbEntity
  8
1
100
AcDbLine
 10
421.0312676648418
 20
293.1267241387026
 30
0.0
 11
413.0312676648418
 21
293.1267241387026
 31
0.0
  0
LINE
  5
1663
330
18
100
AcDbEntity
  8
1
100
AcDbLine
 10
420.0312676648418
 20
283.1267241387026
 30
0.0
 11
414.0312676648418
 21
283.1267241387026
 31
0.0
  0
LINE
  5
1664
330
18
100
AcDbEntity
  8
1
100
AcDbLine
 10
421.0312676648418
 20
294.1267241387026
 30
0.0
 11
411.5312676648418
 21
294.1267241387026
 31
0.0
  0
LINE
  5
1665
330
18
100
AcDbEntity
  8
1
100
AcDbLine
 10
417.5312676648418
 20
284.1626225235648
 30
0.0
 11
417.5312676648418
 21
287.1267241387026
 31
0.0
  0
LINE
  5
1666
330
18
100
AcDbEntity
  8
1
100
AcDbLine
 10
416.5312676648418
 20
284.1626225235648
 30
0.0
 11
416.5312676648418
 21
287.1267241387026
 31
0.0
  0
LINE
  5
1667
330
18
100
AcDbEntity
  8
1
100
AcDbLine
 10
416.5312676648418
 20
288.1267241387026
 30
0.0
 11
416.5312676648418
 21
291.0908257538403
 31
0.0
  0
LINE
  5
1668
330
18
100
AcDbEntity
  8
1
100
AcDbLine
 10
417.5312676648418
 20
288.1267241387026
 30
0.0
 11
417.5312676648418
 21
291.0908257538403
 31
0.0
  0
LINE
  5
1669
330
18
100
AcDbEntity
  8
1
100
AcDbLine
 10
414.0312676648418
 20
291.6267241387026
 30
0.0
 11
413.0312676648418
 21
291.6267241387026
 31
0.0
  0
LINE
  5
166A
330
18
100
AcDbEntity
  8
1
100
AcDbLine
 10
415.0312676648418
 20
287.1267241387026
 30
0.0
 11
415.0312676648418
 21
288.1267241387026
 31
0.0
  0
LINE
  5
166B
330
18
100
AcDbEntity
  8
1
100
AcDbLine
 10
414.0312676648418
 20
292.1267241387026
 30
0.0
 11
414.0312676648418
 21
291.6267241387026
 31
0.0
  0
LINE
  5
166C
330
18
100
AcDbEntity
  8
1
100
AcDbLine
 10
416.5312676648418
 20
288.1267241387026
 30
0.0
 11
415.0312676648418
 21
288.1267241387026
 31
0.0
  0
LINE
  5
166D
330
18
100
AcDbEntity
  8
1
100
AcDbLine
 10
416.5312676648418
 20
287.1267241387026
 30
0.0
 11
415.0312676648418
 21
287.1267241387026
 31
0.0
  0
LINE
  5
166E
330
18
100
AcDbEntity
  8
1
100
AcDbLine
 10
414.0312676648418
 20
283.6267241387026
 30
0.0
 11
413.0312676648418
 21
283.6267241387026
 31
0.0
  0
LINE
  5
166F
330
18
100
AcDbEntity
  8
1
100
AcDbLine
 10
414.0312676648418
 20
283.6267241387026
 30
0.0
 11
414.0312676648418
 21
283.1267241387026
 31
0.0
  0
LINE
  5
1670
330
18
100
AcDbEntity
  8
1
100
AcDbLine
 10
410.5312676648418
 20
292.1267241387026
 30
0.0
 11
410.5312676648418
 21
291.6267241387026
 31
0.0
  0
LINE
  5
1671
330
18
100
AcDbEntity
  8
1
100
AcDbLine
 10
409.5312676648418
 20
287.1267241387026
 30
0.0
 11
409.5312676648418
 21
288.1267241387026
 31
0.0
  0
LINE
  5
1672
330
18
100
AcDbEntity
  8
1
100
AcDbLine
 10
411.5312676648418
 20
291.6267241387026
 30
0.0
 11
410.5312676648418
 21
291.6267241387026
 31
0.0
  0
LINE
  5
1673
330
18
100
AcDbEntity
  8
1
100
AcDbLine
 10
410.5312676648418
 20
283.6267241387026
 30
0.0
 11
410.5312676648418
 21
283.1267241387026
 31
0.0
  0
LINE
  5
1674
330
18
100
AcDbEntity
  8
1
100
AcDbLine
 10
411.5312676648418
 20
283.6267241387026
 30
0.0
 11
410.5312676648418
 21
283.6267241387026
 31
0.0
  0
LINE
  5
1675
330
18
100
AcDbEntity
  8
1
100
AcDbLine
 10
423.5312676648418
 20
292.1267241387026
 30
0.0
 11
423.5312676648418
 21
291.6267241387026
 31
0.0
  0
LINE
  5
1676
330
18
100
AcDbEntity
  8
1
100
AcDbLine
 10
423.5312676648418
 20
291.6267241387026
 30
0.0
 11
422.5312676648418
 21
291.6267241387026
 31
0.0
  0
LINE
  5
1677
330
18
100
AcDbEntity
  8
1
100
AcDbLine
 10
427.0312676648418
 20
284.1626225235648
 30
0.0
 11
427.0312676648418
 21
287.1267241387026
 31
0.0
  0
LINE
  5
1678
330
18
100
AcDbEntity
  8
1
100
AcDbLine
 10
426.0312676648418
 20
284.1626225235648
 30
0.0
 11
426.0312676648418
 21
287.1267241387026
 31
0.0
  0
LINE
  5
1679
330
18
100
AcDbEntity
  8
1
100
AcDbLine
 10
427.0312676648418
 20
288.1267241387026
 30
0.0
 11
427.0312676648418
 21
291.0908257538403
 31
0.0
  0
LINE
  5
167A
330
18
100
AcDbEntity
  8
1
100
AcDbLine
 10
426.0312676648418
 20
288.1267241387026
 30
0.0
 11
424.5312676648418
 21
288.1267241387026
 31
0.0
  0
LINE
  5
167B
330
18
100
AcDbEntity
  8
1
100
AcDbLine
 10
426.0312676648418
 20
287.1267241387026
 30
0.0
 11
424.5312676648418
 21
287.1267241387026
 31
0.0
  0
LINE
  5
167C
330
18
100
AcDbEntity
  8
1
100
AcDbLine
 10
426.0312676648418
 20
288.1267241387026
 30
0.0
 11
426.0312676648418
 21
291.0908257538403
 31
0.0
  0
LINE
  5
167D
330
18
100
AcDbEntity
  8
1
100
AcDbLine
 10
424.5312676648418
 20
287.1267241387026
 30
0.0
 11
424.5312676648418
 21
288.1267241387026
 31
0.0
  0
LINE
  5
167E
330
18
100
AcDbEntity
  8
1
100
AcDbLine
 10
420.0312676648418
 20
292.1267241387026
 30
0.0
 11
420.0312676648418
 21
291.6267241387026
 31
0.0
  0
LINE
  5
167F
330
18
100
AcDbEntity
  8
1
100
AcDbLine
 10
419.0312676648418
 20
287.1267241387026
 30
0.0
 11
419.0312676648418
 21
288.1267241387026
 31
0.0
  0
LINE
  5
1680
330
18
100
AcDbEntity
  8
1
100
AcDbLine
 10
421.0312676648418
 20
291.6267241387026
 30
0.0
 11
420.0312676648418
 21
291.6267241387026
 31
0.0
  0
LINE
  5
1681
330
18
100
AcDbEntity
  8
1
100
AcDbLine
 10
423.5312676648418
 20
283.6267241387026
 30
0.0
 11
422.5312676648418
 21
283.6267241387026
 31
0.0
  0
LINE
  5
1682
330
18
100
AcDbEntity
  8
1
100
AcDbLine
 10
423.5312676648418
 20
283.6267241387026
 30
0.0
 11
423.5312676648418
 21
283.1267241387026
 31
0.0
  0
LINE
  5
1683
330
18
100
AcDbEntity
  8
1
100
AcDbLine
 10
420.0312676648418
 20
283.6267241387026
 30
0.0
 11
420.0312676648418
 21
283.1267241387026
 31
0.0
  0
LINE
  5
1684
330
18
100
AcDbEntity
  8
1
100
AcDbLine
 10
421.0312676648418
 20
283.6267241387026
 30
0.0
 11
420.0312676648418
 21
283.6267241387026
 31
0.0
  0
TEXT
  5
1685
330
18
100
AcDbEntity
  8
1
 48
0.5
100
AcDbText
 10
416.5832981216945
 20
301.7028662706823
 30
0.0
 40
2.0
  1
接点出力
  7
ＭＳゴシック
 72
     4
 11
421.7812676648418
 21
302.6267241387027
 31
0.0
100
AcDbText
  0
LINE
  5
1686
330
18
100
AcDbEntity
  8
1
 48
0.5
100
AcDbLine
 10
417.0312676648418
 20
301.1267241387026
 30
0.0
 11
426.5312676648418
 21
301.1267241387026
 31
0.0
  0
LINE
  5
1687
330
18
100
AcDbEntity
  8
1
100
AcDbLine
 10
417.0312676648418
 20
299.6267241387026
 30
0.0
 11
417.0312676648418
 21
301.1267241387026
 31
0.0
  0
TEXT
  5
1688
330
18
100
AcDbEntity
  8
1
 48
0.5
100
AcDbText
 10
416.4826962362703
 20
296.6938669958455
 30
0.0
 40
1.5
  1
4
  7
ＭＳ明朝
 72
     4
 11
417.0312676648418
 21
297.4267241387027
 31
0.0
100
AcDbText
  0
LINE
  5
1689
330
18
100
AcDbEntity
  8
1
100
AcDbLine
 10
426.5312676648418
 20
299.6267241387026
 30
0.0
 11
426.5312676648418
 21
301.1267241387026
 31
0.0
  0
TEXT
  5
168A
330
18
100
AcDbEntity
  8
1
 48
0.5
100
AcDbText
 10
425.9826962362703
 20
296.6938669958455
 30
0.0
 40
1.5
  1
5
  7
ＭＳ明朝
 72
     4
 11
426.5312676648418
 21
297.4267241387027
 31
0.0
100
AcDbText
  0
LINE
  5
168B
330
18
100
AcDbEntity
  8
1
100
AcDbLine
 10
439.0312676648418
 20
292.1267241387026
 30
0.0
 11
433.0312676648418
 21
292.1267241387026
 31
0.0
  0
LINE
  5
168C
330
18
100
AcDbEntity
  8
1
100
AcDbLine
 10
438.0312676648418
 20
288.1267241387026
 30
0.0
 11
436.5312676648418
 21
288.1267241387026
 31
0.0
  0
LINE
  5
168D
330
18
100
AcDbEntity
  8
1
100
AcDbLine
 10
438.0312676648418
 20
287.1267241387026
 30
0.0
 11
436.5312676648418
 21
287.1267241387026
 31
0.0
  0
CIRCLE
  5
168E
330
18
100
AcDbEntity
  8
1
100
AcDbCircle
 10
436.0312676648418
 20
287.6267241387026
 30
0.0
 40
3.5
  0
LINE
  5
168F
330
18
100
AcDbEntity
  8
1
100
AcDbLine
 10
440.0312676648418
 20
293.1267241387026
 30
0.0
 11
432.0312676648418
 21
293.1267241387026
 31
0.0
  0
LINE
  5
1690
330
18
100
AcDbEntity
  8
1
100
AcDbLine
 10
440.0312676648418
 20
294.1267241387026
 30
0.0
 11
430.5312676648418
 21
294.1267241387026
 31
0.0
  0
LINE
  5
1691
330
18
100
AcDbEntity
  8
1
100
AcDbLine
 10
439.0312676648418
 20
283.1267241387026
 30
0.0
 11
433.0312676648418
 21
283.1267241387026
 31
0.0
  0
LINE
  5
1692
330
18
100
AcDbEntity
  8
1
100
AcDbLine
 10
436.5312676648418
 20
284.1626225235648
 30
0.0
 11
436.5312676648418
 21
287.1267241387026
 31
0.0
  0
LINE
  5
1693
330
18
100
AcDbEntity
  8
1
100
AcDbLine
 10
435.5312676648418
 20
284.1626225235648
 30
0.0
 11
435.5312676648418
 21
287.1267241387026
 31
0.0
  0
LINE
  5
1694
330
18
100
AcDbEntity
  8
1
100
AcDbLine
 10
435.5312676648418
 20
288.1267241387026
 30
0.0
 11
434.0312676648418
 21
288.1267241387026
 31
0.0
  0
LINE
  5
1695
330
18
100
AcDbEntity
  8
1
100
AcDbLine
 10
435.5312676648418
 20
287.1267241387026
 30
0.0
 11
434.0312676648418
 21
287.1267241387026
 31
0.0
  0
LINE
  5
1696
330
18
100
AcDbEntity
  8
1
100
AcDbLine
 10
433.0312676648418
 20
291.6267241387026
 30
0.0
 11
432.0312676648418
 21
291.6267241387026
 31
0.0
  0
LINE
  5
1697
330
18
100
AcDbEntity
  8
1
100
AcDbLine
 10
433.0312676648418
 20
292.1267241387026
 30
0.0
 11
433.0312676648418
 21
291.6267241387026
 31
0.0
  0
LINE
  5
1698
330
18
100
AcDbEntity
  8
1
100
AcDbLine
 10
434.0312676648418
 20
287.1267241387026
 30
0.0
 11
434.0312676648418
 21
288.1267241387026
 31
0.0
  0
LINE
  5
1699
330
18
100
AcDbEntity
  8
1
100
AcDbLine
 10
436.5312676648418
 20
288.1267241387026
 30
0.0
 11
436.5312676648418
 21
291.0908257538403
 31
0.0
  0
LINE
  5
169A
330
18
100
AcDbEntity
  8
1
100
AcDbLine
 10
435.5312676648418
 20
288.1267241387026
 30
0.0
 11
435.5312676648418
 21
291.0908257538403
 31
0.0
  0
LINE
  5
169B
330
18
100
AcDbEntity
  8
1
100
AcDbLine
 10
433.0312676648418
 20
283.6267241387026
 30
0.0
 11
432.0312676648418
 21
283.6267241387026
 31
0.0
  0
LINE
  5
169C
330
18
100
AcDbEntity
  8
1
100
AcDbLine
 10
433.0312676648418
 20
283.6267241387026
 30
0.0
 11
433.0312676648418
 21
283.1267241387026
 31
0.0
  0
LINE
  5
169D
330
18
100
AcDbEntity
  8
1
100
AcDbLine
 10
429.5312676648418
 20
292.1267241387026
 30
0.0
 11
429.5312676648418
 21
291.6267241387026
 31
0.0
  0
LINE
  5
169E
330
18
100
AcDbEntity
  8
1
100
AcDbLine
 10
428.5312676648418
 20
287.1267241387026
 30
0.0
 11
428.5312676648418
 21
288.1267241387026
 31
0.0
  0
LINE
  5
169F
330
18
100
AcDbEntity
  8
1
100
AcDbLine
 10
429.5312676648418
 20
283.6267241387026
 30
0.0
 11
429.5312676648418
 21
283.1267241387026
 31
0.0
  0
LINE
  5
16A0
330
18
100
AcDbEntity
  8
1
100
AcDbLine
 10
430.5312676648418
 20
283.6267241387026
 30
0.0
 11
429.5312676648418
 21
283.6267241387026
 31
0.0
  0
LINE
  5
16A1
330
18
100
AcDbEntity
  8
1
100
AcDbLine
 10
430.5312676648418
 20
291.6267241387026
 30
0.0
 11
429.5312676648418
 21
291.6267241387026
 31
0.0
  0
LINE
  5
16A2
330
18
100
AcDbEntity
  8
1
100
AcDbLine
 10
446.0312676648418
 20
284.1626225235648
 30
0.0
 11
446.0312676648418
 21
287.1267241387026
 31
0.0
  0
LINE
  5
16A3
330
18
100
AcDbEntity
  8
1
100
AcDbLine
 10
445.0312676648418
 20
284.1626225235648
 30
0.0
 11
445.0312676648418
 21
287.1267241387026
 31
0.0
  0
LINE
  5
16A4
330
18
100
AcDbEntity
  8
1
100
AcDbLine
 10
445.0312676648418
 20
288.1267241387026
 30
0.0
 11
443.5312676648418
 21
288.1267241387026
 31
0.0
  0
LINE
  5
16A5
330
18
100
AcDbEntity
  8
1
100
AcDbLine
 10
445.0312676648418
 20
287.1267241387026
 30
0.0
 11
443.5312676648418
 21
287.1267241387026
 31
0.0
  0
LINE
  5
16A6
330
18
100
AcDbEntity
  8
1
100
AcDbLine
 10
446.0312676648418
 20
288.1267241387026
 30
0.0
 11
446.0312676648418
 21
291.0908257538403
 31
0.0
  0
LINE
  5
16A7
330
18
100
AcDbEntity
  8
1
100
AcDbLine
 10
445.0312676648418
 20
288.1267241387026
 30
0.0
 11
445.0312676648418
 21
291.0908257538403
 31
0.0
  0
LINE
  5
16A8
330
18
100
AcDbEntity
  8
1
100
AcDbLine
 10
442.5312676648418
 20
292.1267241387026
 30
0.0
 11
442.5312676648418
 21
291.6267241387026
 31
0.0
  0
LINE
  5
16A9
330
18
100
AcDbEntity
  8
1
100
AcDbLine
 10
442.5312676648418
 20
291.6267241387026
 30
0.0
 11
441.5312676648418
 21
291.6267241387026
 31
0.0
  0
LINE
  5
16AA
330
18
100
AcDbEntity
  8
1
100
AcDbLine
 10
443.5312676648418
 20
287.1267241387026
 30
0.0
 11
443.5312676648418
 21
288.1267241387026
 31
0.0
  0
LINE
  5
16AB
330
18
100
AcDbEntity
  8
1
100
AcDbLine
 10
439.0312676648418
 20
292.1267241387026
 30
0.0
 11
439.0312676648418
 21
291.6267241387026
 31
0.0
  0
LINE
  5
16AC
330
18
100
AcDbEntity
  8
1
100
AcDbLine
 10
438.0312676648418
 20
287.1267241387026
 30
0.0
 11
438.0312676648418
 21
288.1267241387026
 31
0.0
  0
LINE
  5
16AD
330
18
100
AcDbEntity
  8
1
100
AcDbLine
 10
440.0312676648418
 20
291.6267241387026
 30
0.0
 11
439.0312676648418
 21
291.6267241387026
 31
0.0
  0
LINE
  5
16AE
330
18
100
AcDbEntity
  8
1
100
AcDbLine
 10
442.5312676648418
 20
283.6267241387026
 30
0.0
 11
441.5312676648418
 21
283.6267241387026
 31
0.0
  0
LINE
  5
16AF
330
18
100
AcDbEntity
  8
1
100
AcDbLine
 10
442.5312676648418
 20
283.6267241387026
 30
0.0
 11
442.5312676648418
 21
283.1267241387026
 31
0.0
  0
LINE
  5
16B0
330
18
100
AcDbEntity
  8
1
100
AcDbLine
 10
439.0312676648418
 20
283.6267241387026
 30
0.0
 11
439.0312676648418
 21
283.1267241387026
 31
0.0
  0
LINE
  5
16B1
330
18
100
AcDbEntity
  8
1
100
AcDbLine
 10
440.0312676648418
 20
283.6267241387026
 30
0.0
 11
439.0312676648418
 21
283.6267241387026
 31
0.0
  0
LINE
  5
16B2
330
18
100
AcDbEntity
  8
1
 48
0.5
100
AcDbLine
 10
436.0312676648418
 20
301.1267241387026
 30
0.0
 11
445.5312676648418
 21
301.1267241387026
 31
0.0
  0
LINE
  5
16B3
330
18
100
AcDbEntity
  8
1
100
AcDbLine
 10
436.0312676648418
 20
299.6267241387026
 30
0.0
 11
436.0312676648418
 21
301.1267241387026
 31
0.0
  0
TEXT
  5
16B4
330
18
100
AcDbEntity
  8
1
 48
0.5
100
AcDbText
 10
435.4826962362704
 20
296.6938669958455
 30
0.0
 40
1.5
  1
6
  7
ＭＳ明朝
 72
     4
 11
436.0312676648418
 21
297.4267241387027
 31
0.0
100
AcDbText
  0
LINE
  5
16B5
330
18
100
AcDbEntity
  8
1
100
AcDbLine
 10
445.5312676648418
 20
299.6267241387026
 30
0.0
 11
445.5312676648418
 21
301.1267241387026
 31
0.0
  0
TEXT
  5
16B6
330
18
100
AcDbEntity
  8
1
 48
0.5
100
AcDbText
 10
444.9826962362704
 20
296.6938669958455
 30
0.0
 40
1.5
  1
7
  7
ＭＳ明朝
 72
     4
 11
445.5312676648418
 21
297.4267241387027
 31
0.0
100
AcDbText
  0
TEXT
  5
16B7
330
18
100
AcDbEntity
  8
1
 48
0.5
100
AcDbText
 10
437.5325367003748
 20
304.1876378442864
 30
0.0
 40
2.0
  1
冷 却
  7
ＭＳゴシック
 72
     4
 11
440.7812676648418
 21
305.1267241387026
 31
0.0
100
AcDbText
  0
CIRCLE
  5
16B8
330
18
100
AcDbEntity
  8
1
100
AcDbCircle
 10
464.5312676648418
 20
287.6267241387026
 30
0.0
 40
3.5
  0
LINE
  5
16B9
330
18
100
AcDbEntity
  8
1
100
AcDbLine
 10
467.5312676648418
 20
283.1267241387026
 30
0.0
 11
461.5312676648418
 21
283.1267241387026
 31
0.0
  0
LINE
  5
16BA
330
18
100
AcDbEntity
  8
1
100
AcDbLine
 10
468.5312676648418
 20
294.1267241387026
 30
0.0
 11
459.0312676648418
 21
294.1267241387026
 31
0.0
  0
LINE
  5
16BB
330
18
100
AcDbEntity
  8
1
100
AcDbLine
 10
468.5312676648418
 20
293.1267241387026
 30
0.0
 11
460.5312676648418
 21
293.1267241387026
 31
0.0
  0
LINE
  5
16BC
330
18
100
AcDbEntity
  8
1
100
AcDbLine
 10
467.5312676648418
 20
292.1267241387026
 30
0.0
 11
461.5312676648418
 21
292.1267241387026
 31
0.0
  0
TEXT
  5
16BD
330
18
100
AcDbEntity
  8
1
 48
0.5
100
AcDbText
 10
463.9826962362702
 20
296.6938669958455
 30
0.0
 40
1.5
  1
9
  7
ＭＳ明朝
 72
     4
 11
464.5312676648416
 21
297.4267241387027
 31
0.0
100
AcDbText
  0
TEXT
  5
16BE
330
18
100
AcDbEntity
  8
1
 48
0.5
100
AcDbText
 10
454.5832981216944
 20
304.2180946970783
 30
0.0
 40
2.0
  1
センサー
  7
ＭＳゴシック
 72
     4
 11
459.7812676648417
 21
305.1267241387026
 31
0.0
100
AcDbText
  0
TEXT
  5
16BF
330
18
100
AcDbEntity
  8
1
 48
0.5
100
AcDbText
 10
453.0949871548123
 20
301.6267241387026
 30
0.0
 40
2.0
  1
白(A) 黒(K)
  7
ＭＳゴシック
 11
453.0949871548123
 21
302.6267241387027
 31
0.0
100
AcDbText
 73
     2
  0
CIRCLE
  5
16C0
330
18
100
AcDbEntity
  8
1
100
AcDbCircle
 10
455.0312676648418
 20
287.6267241387026
 30
0.0
 40
3.5
  0
LINE
  5
16C1
330
18
100
AcDbEntity
  8
1
100
AcDbLine
 10
459.0312676648418
 20
293.1267241387026
 30
0.0
 11
451.0312676648418
 21
293.1267241387026
 31
0.0
  0
LINE
  5
16C2
330
18
100
AcDbEntity
  8
1
100
AcDbLine
 10
459.0312676648418
 20
294.1267241387026
 30
0.0
 11
449.5312676648418
 21
294.1267241387026
 31
0.0
  0
LINE
  5
16C3
330
18
100
AcDbEntity
  8
1
100
AcDbLine
 10
458.0312676648418
 20
292.1267241387026
 30
0.0
 11
452.0312676648418
 21
292.1267241387026
 31
0.0
  0
LINE
  5
16C4
330
18
100
AcDbEntity
  8
1
100
AcDbLine
 10
458.0312676648418
 20
283.1267241387026
 30
0.0
 11
452.0312676648418
 21
283.1267241387026
 31
0.0
  0
LINE
  5
16C5
330
18
100
AcDbEntity
  8
1
100
AcDbLine
 10
454.5312676648418
 20
284.1626225235648
 30
0.0
 11
454.5312676648418
 21
287.1267241387026
 31
0.0
  0
LINE
  5
16C6
330
18
100
AcDbEntity
  8
1
100
AcDbLine
 10
454.5312676648418
 20
288.1267241387026
 30
0.0
 11
454.5312676648418
 21
291.0908257538403
 31
0.0
  0
LINE
  5
16C7
330
18
100
AcDbEntity
  8
1
100
AcDbLine
 10
452.0312676648418
 20
291.6267241387026
 30
0.0
 11
451.0312676648418
 21
291.6267241387026
 31
0.0
  0
LINE
  5
16C8
330
18
100
AcDbEntity
  8
1
100
AcDbLine
 10
452.0312676648418
 20
292.1267241387026
 30
0.0
 11
452.0312676648418
 21
291.6267241387026
 31
0.0
  0
LINE
  5
16C9
330
18
100
AcDbEntity
  8
1
100
AcDbLine
 10
453.0312676648418
 20
287.1267241387026
 30
0.0
 11
453.0312676648418
 21
288.1267241387026
 31
0.0
  0
LINE
  5
16CA
330
18
100
AcDbEntity
  8
1
100
AcDbLine
 10
448.5312676648418
 20
292.1267241387026
 30
0.0
 11
448.5312676648418
 21
291.6267241387026
 31
0.0
  0
LINE
  5
16CB
330
18
100
AcDbEntity
  8
1
100
AcDbLine
 10
449.5312676648418
 20
291.6267241387026
 30
0.0
 11
448.5312676648418
 21
291.6267241387026
 31
0.0
  0
LINE
  5
16CC
330
18
100
AcDbEntity
  8
1
100
AcDbLine
 10
454.5312676648418
 20
288.1267241387026
 30
0.0
 11
453.0312676648418
 21
288.1267241387026
 31
0.0
  0
LINE
  5
16CD
330
18
100
AcDbEntity
  8
1
100
AcDbLine
 10
454.5312676648418
 20
287.1267241387026
 30
0.0
 11
453.0312676648418
 21
287.1267241387026
 31
0.0
  0
LINE
  5
16CE
330
18
100
AcDbEntity
  8
1
100
AcDbLine
 10
452.0312676648418
 20
283.6267241387026
 30
0.0
 11
451.0312676648418
 21
283.6267241387026
 31
0.0
  0
LINE
  5
16CF
330
18
100
AcDbEntity
  8
1
100
AcDbLine
 10
452.0312676648418
 20
283.6267241387026
 30
0.0
 11
452.0312676648418
 21
283.1267241387026
 31
0.0
  0
LINE
  5
16D0
330
18
100
AcDbEntity
  8
1
100
AcDbLine
 10
448.5312676648418
 20
283.6267241387026
 30
0.0
 11
448.5312676648418
 21
283.1267241387026
 31
0.0
  0
LINE
  5
16D1
330
18
100
AcDbEntity
  8
1
100
AcDbLine
 10
449.5312676648418
 20
283.6267241387026
 30
0.0
 11
448.5312676648418
 21
283.6267241387026
 31
0.0
  0
LINE
  5
16D2
330
18
100
AcDbEntity
  8
1
100
AcDbLine
 10
447.5312676648418
 20
287.1267241387026
 30
0.0
 11
447.5312676648418
 21
288.1267241387026
 31
0.0
  0
LINE
  5
16D3
330
18
100
AcDbEntity
  8
1
100
AcDbLine
 10
464.0312676648418
 20
284.1626225235648
 30
0.0
 11
464.0312676648418
 21
287.1267241387026
 31
0.0
  0
LINE
  5
16D4
330
18
100
AcDbEntity
  8
1
100
AcDbLine
 10
464.0312676648418
 20
287.1267241387026
 30
0.0
 11
462.5312676648418
 21
287.1267241387026
 31
0.0
  0
LINE
  5
16D5
330
18
100
AcDbEntity
  8
1
100
AcDbLine
 10
464.0312676648418
 20
288.1267241387026
 30
0.0
 11
462.5312676648418
 21
288.1267241387026
 31
0.0
  0
LINE
  5
16D6
330
18
100
AcDbEntity
  8
1
100
AcDbLine
 10
464.0312676648418
 20
288.1267241387026
 30
0.0
 11
464.0312676648418
 21
291.0908257538403
 31
0.0
  0
LINE
  5
16D7
330
18
100
AcDbEntity
  8
1
100
AcDbLine
 10
458.0312676648418
 20
292.1267241387026
 30
0.0
 11
458.0312676648418
 21
291.6267241387026
 31
0.0
  0
LINE
  5
16D8
330
18
100
AcDbEntity
  8
1
100
AcDbLine
 10
461.5312676648418
 20
291.6267241387026
 30
0.0
 11
460.5312676648418
 21
291.6267241387026
 31
0.0
  0
LINE
  5
16D9
330
18
100
AcDbEntity
  8
1
100
AcDbLine
 10
462.5312676648418
 20
287.1267241387026
 30
0.0
 11
462.5312676648418
 21
288.1267241387026
 31
0.0
  0
LINE
  5
16DA
330
18
100
AcDbEntity
  8
1
100
AcDbLine
 10
461.5312676648418
 20
292.1267241387026
 30
0.0
 11
461.5312676648418
 21
291.6267241387026
 31
0.0
  0
LINE
  5
16DB
330
18
100
AcDbEntity
  8
1
100
AcDbLine
 10
459.0312676648418
 20
291.6267241387026
 30
0.0
 11
458.0312676648418
 21
291.6267241387026
 31
0.0
  0
LINE
  5
16DC
330
18
100
AcDbEntity
  8
1
100
AcDbLine
 10
455.5312676648418
 20
284.1626225235648
 30
0.0
 11
455.5312676648418
 21
287.1267241387026
 31
0.0
  0
LINE
  5
16DD
330
18
100
AcDbEntity
  8
1
100
AcDbLine
 10
455.5312676648418
 20
288.1267241387026
 30
0.0
 11
455.5312676648418
 21
291.0908257538403
 31
0.0
  0
LINE
  5
16DE
330
18
100
AcDbEntity
  8
1
100
AcDbLine
 10
457.0312676648418
 20
287.1267241387026
 30
0.0
 11
457.0312676648418
 21
288.1267241387026
 31
0.0
  0
LINE
  5
16DF
330
18
100
AcDbEntity
  8
1
100
AcDbLine
 10
457.0312676648418
 20
288.1267241387026
 30
0.0
 11
455.5312676648418
 21
288.1267241387026
 31
0.0
  0
LINE
  5
16E0
330
18
100
AcDbEntity
  8
1
100
AcDbLine
 10
457.0312676648418
 20
287.1267241387026
 30
0.0
 11
455.5312676648418
 21
287.1267241387026
 31
0.0
  0
LINE
  5
16E1
330
18
100
AcDbEntity
  8
1
100
AcDbLine
 10
458.0312676648418
 20
283.6267241387026
 30
0.0
 11
458.0312676648418
 21
283.1267241387026
 31
0.0
  0
LINE
  5
16E2
330
18
100
AcDbEntity
  8
1
100
AcDbLine
 10
461.5312676648418
 20
283.6267241387026
 30
0.0
 11
461.5312676648418
 21
283.1267241387026
 31
0.0
  0
LINE
  5
16E3
330
18
100
AcDbEntity
  8
1
100
AcDbLine
 10
461.5312676648418
 20
283.6267241387026
 30
0.0
 11
460.5312676648418
 21
283.6267241387026
 31
0.0
  0
LINE
  5
16E4
330
18
100
AcDbEntity
  8
1
100
AcDbLine
 10
459.0312676648418
 20
283.6267241387026
 30
0.0
 11
458.0312676648418
 21
283.6267241387026
 31
0.0
  0
TEXT
  5
16E5
330
18
100
AcDbEntity
  8
1
 48
0.5
100
AcDbText
 10
454.4826962362703
 20
296.6938669958455
 30
0.0
 40
1.5
  1
8
  7
ＭＳ明朝
 72
     4
 11
455.0312676648418
 21
297.4267241387027
 31
0.0
100
AcDbText
  0
LINE
  5
16E6
330
18
100
AcDbEntity
  8
1
 48
0.5
100
AcDbLine
 10
455.0312676648418
 20
301.1267241387026
 30
0.0
 11
464.5312676648418
 21
301.1267241387026
 31
0.0
  0
LINE
  5
16E7
330
18
100
AcDbEntity
  8
1
100
AcDbLine
 10
455.0312676648418
 20
299.6267241387026
 30
0.0
 11
455.0312676648418
 21
301.1267241387026
 31
0.0
  0
LINE
  5
16E8
330
18
100
AcDbEntity
  8
1
100
AcDbLine
 10
464.5312676648416
 20
299.6267241387026
 30
0.0
 11
464.5312676648418
 21
301.1267241387026
 31
0.0
  0
CIRCLE
  5
16E9
330
18
100
AcDbEntity
  8
1
100
AcDbCircle
 10
474.0312676648418
 20
287.6267241387026
 30
0.0
 40
3.5
  0
LINE
  5
16EA
330
18
100
AcDbEntity
  8
1
100
AcDbLine
 10
478.0312676648418
 20
293.1267241387026
 30
0.0
 11
470.0312676648418
 21
293.1267241387026
 31
0.0
  0
LINE
  5
16EB
330
18
100
AcDbEntity
  8
1
100
AcDbLine
 10
477.0312676648418
 20
292.1267241387026
 30
0.0
 11
471.0312676648418
 21
292.1267241387026
 31
0.0
  0
LINE
  5
16EC
330
18
100
AcDbEntity
  8
1
100
AcDbLine
 10
477.0312676648418
 20
283.1267241387026
 30
0.0
 11
471.0312676648418
 21
283.1267241387026
 31
0.0
  0
LINE
  5
16ED
330
18
100
AcDbEntity
  8
1
100
AcDbLine
 10
468.5312676648418
 20
291.6267241387026
 30
0.0
 11
467.5312676648418
 21
291.6267241387026
 31
0.0
  0
LINE
  5
16EE
330
18
100
AcDbEntity
  8
1
100
AcDbLine
 10
467.5312676648418
 20
292.1267241387026
 30
0.0
 11
467.5312676648418
 21
291.6267241387026
 31
0.0
  0
LINE
  5
16EF
330
18
100
AcDbEntity
  8
1
100
AcDbLine
 10
473.5312676648418
 20
284.1626225235648
 30
0.0
 11
473.5312676648418
 21
287.1267241387026
 31
0.0
  0
LINE
  5
16F0
330
18
100
AcDbEntity
  8
1
100
AcDbLine
 10
471.0312676648418
 20
291.6267241387026
 30
0.0
 11
470.0312676648418
 21
291.6267241387026
 31
0.0
  0
LINE
  5
16F1
330
18
100
AcDbEntity
  8
1
100
AcDbLine
 10
472.0312676648418
 20
287.1267241387026
 30
0.0
 11
472.0312676648418
 21
288.1267241387026
 31
0.0
  0
LINE
  5
16F2
330
18
100
AcDbEntity
  8
1
100
AcDbLine
 10
473.5312676648418
 20
288.1267241387026
 30
0.0
 11
473.5312676648418
 21
291.0908257538403
 31
0.0
  0
LINE
  5
16F3
330
18
100
AcDbEntity
  8
1
100
AcDbLine
 10
473.5312676648418
 20
287.1267241387026
 30
0.0
 11
472.0312676648418
 21
287.1267241387026
 31
0.0
  0
LINE
  5
16F4
330
18
100
AcDbEntity
  8
1
100
AcDbLine
 10
473.5312676648418
 20
288.1267241387026
 30
0.0
 11
472.0312676648418
 21
288.1267241387026
 31
0.0
  0
LINE
  5
16F5
330
18
100
AcDbEntity
  8
1
100
AcDbLine
 10
471.0312676648418
 20
292.1267241387026
 30
0.0
 11
471.0312676648418
 21
291.6267241387026
 31
0.0
  0
LINE
  5
16F6
330
18
100
AcDbEntity
  8
1
100
AcDbLine
 10
468.5312676648418
 20
283.6267241387026
 30
0.0
 11
467.5312676648418
 21
283.6267241387026
 31
0.0
  0
LINE
  5
16F7
330
18
100
AcDbEntity
  8
1
100
AcDbLine
 10
467.5312676648418
 20
283.6267241387026
 30
0.0
 11
467.5312676648418
 21
283.1267241387026
 31
0.0
  0
LINE
  5
16F8
330
18
100
AcDbEntity
  8
1
100
AcDbLine
 10
471.0312676648418
 20
283.6267241387026
 30
0.0
 11
471.0312676648418
 21
283.1267241387026
 31
0.0
  0
LINE
  5
16F9
330
18
100
AcDbEntity
  8
1
100
AcDbLine
 10
471.0312676648418
 20
283.6267241387026
 30
0.0
 11
470.0312676648418
 21
283.6267241387026
 31
0.0
  0
LINE
  5
16FA
330
18
100
AcDbEntity
  8
1
100
AcDbLine
 10
465.0312676648418
 20
284.1626225235648
 30
0.0
 11
465.0312676648418
 21
287.1267241387026
 31
0.0
  0
LINE
  5
16FB
330
18
100
AcDbEntity
  8
1
100
AcDbLine
 10
466.5312676648418
 20
287.1267241387026
 30
0.0
 11
466.5312676648418
 21
288.1267241387026
 31
0.0
  0
LINE
  5
16FC
330
18
100
AcDbEntity
  8
1
100
AcDbLine
 10
465.0312676648418
 20
288.1267241387026
 30
0.0
 11
465.0312676648418
 21
291.0908257538403
 31
0.0
  0
LINE
  5
16FD
330
18
100
AcDbEntity
  8
1
100
AcDbLine
 10
466.5312676648418
 20
287.1267241387026
 30
0.0
 11
465.0312676648418
 21
287.1267241387026
 31
0.0
  0
LINE
  5
16FE
330
18
100
AcDbEntity
  8
1
100
AcDbLine
 10
466.5312676648418
 20
288.1267241387026
 30
0.0
 11
465.0312676648418
 21
288.1267241387026
 31
0.0
  0
LINE
  5
16FF
330
18
100
AcDbEntity
  8
1
100
AcDbLine
 10
480.5312676648418
 20
292.1267241387026
 30
0.0
 11
480.5312676648418
 21
291.6267241387026
 31
0.0
  0
LINE
  5
1700
330
18
100
AcDbEntity
  8
1
100
AcDbLine
 10
474.5312676648418
 20
284.1626225235648
 30
0.0
 11
474.5312676648418
 21
287.1267241387026
 31
0.0
  0
LINE
  5
1701
330
18
100
AcDbEntity
  8
1
100
AcDbLine
 10
474.5312676648418
 20
288.1267241387026
 30
0.0
 11
474.5312676648418
 21
291.0908257538403
 31
0.0
  0
LINE
  5
1702
330
18
100
AcDbEntity
  8
1
100
AcDbLine
 10
476.0312676648418
 20
287.1267241387026
 30
0.0
 11
474.5312676648418
 21
287.1267241387026
 31
0.0
  0
LINE
  5
1703
330
18
100
AcDbEntity
  8
1
100
AcDbLine
 10
476.0312676648418
 20
288.1267241387026
 30
0.0
 11
474.5312676648418
 21
288.1267241387026
 31
0.0
  0
LINE
  5
1704
330
18
100
AcDbEntity
  8
1
100
AcDbLine
 10
480.5312676648418
 20
283.6267241387026
 30
0.0
 11
479.5312676648418
 21
283.6267241387026
 31
0.0
  0
LINE
  5
1705
330
18
100
AcDbEntity
  8
1
100
AcDbLine
 10
478.0312676648418
 20
283.6267241387026
 30
0.0
 11
477.0312676648418
 21
283.6267241387026
 31
0.0
  0
LINE
  5
1706
330
18
100
AcDbEntity
  8
1
100
AcDbLine
 10
477.0312676648418
 20
283.6267241387026
 30
0.0
 11
477.0312676648418
 21
283.1267241387026
 31
0.0
  0
LINE
  5
1707
330
18
100
AcDbEntity
  8
1
100
AcDbLine
 10
480.5312676648418
 20
283.6267241387026
 30
0.0
 11
480.5312676648418
 21
283.1267241387026
 31
0.0
  0
LINE
  5
1708
330
18
100
AcDbEntity
  8
1
100
AcDbLine
 10
480.5312676648418
 20
291.6267241387026
 30
0.0
 11
479.5312676648418
 21
291.6267241387026
 31
0.0
  0
LINE
  5
1709
330
18
100
AcDbEntity
  8
1
100
AcDbLine
 10
478.0312676648418
 20
291.6267241387026
 30
0.0
 11
477.0312676648418
 21
291.6267241387026
 31
0.0
  0
LINE
  5
170A
330
18
100
AcDbEntity
  8
1
100
AcDbLine
 10
477.0312676648418
 20
292.1267241387026
 30
0.0
 11
477.0312676648418
 21
291.6267241387026
 31
0.0
  0
LINE
  5
170B
330
18
100
AcDbEntity
  8
1
100
AcDbLine
 10
476.0312676648418
 20
287.1267241387026
 30
0.0
 11
476.0312676648418
 21
288.1267241387026
 31
0.0
  0
LINE
  5
170C
330
18
100
AcDbEntity
  8
1
100
AcDbLine
 10
482.0312676648418
 20
288.1267241387026
 30
0.0
 11
482.0312676648418
 21
287.1267241387026
 31
0.0
  0
LINE
  5
170D
330
18
100
AcDbEntity
  8
1
100
AcDbLine
 10
482.5312676648418
 20
288.1267241387026
 30
0.0
 11
482.0312676648418
 21
288.1267241387026
 31
0.0
  0
LINE
  5
170E
330
18
100
AcDbEntity
  8
1
100
AcDbLine
 10
482.0312676648418
 20
287.1267241387026
 30
0.0
 11
482.5312676648418
 21
287.1267241387026
 31
0.0
  0
TEXT
  5
170F
330
18
100
AcDbEntity
  8
1
 48
0.5
100
AcDbText
 10
472.731775279055
 20
301.6368764229666
 30
0.0
 40
2.0
  1
NC
  7
ＭＳゴシック
 72
     4
 11
474.0312676648418
 21
302.6267241387027
 31
0.0
100
AcDbText
  0
TEXT
  5
1710
330
18
100
AcDbEntity
  8
1
 48
0.5
100
AcDbText
 10
472.9341248076988
 20
296.6938669958455
 30
0.0
 40
1.5
  1
10
  7
ＭＳ明朝
 72
     4
 11
474.0312676648417
 21
297.4267241387027
 31
0.0
100
AcDbText
  0
LINE
  5
1711
330
18
100
AcDbEntity
  8
1
100
AcDbLine
 10
474.0312676648417
 20
299.6267241387026
 30
0.0
 11
474.0312676648418
 21
301.1267241387026
 31
0.0
  0
LINE
  5
1712
330
18
100
AcDbEntity
  8
1
100
AcDbLine
 10
487.5312676648418
 20
281.1267241387026
 30
0.0
 11
487.5312676648418
 21
294.1267241387026
 31
0.0
  0
LINE
  5
1713
330
18
100
AcDbEntity
  8
1
100
AcDbLine
 10
488.0312676648418
 20
280.6267241387026
 30
0.0
 11
488.0312676648418
 21
294.6267241387026
 31
0.0
  0
ARC
  5
1714
330
18
100
AcDbEntity
  8
1
100
AcDbCircle
 10
501.2812676648418
 20
273.8267241387026
 30
0.0
 40
2.0
100
AcDbArc
 50
270.0
 51
0.0
  0
ARC
  5
1715
330
18
100
AcDbEntity
  8
1
100
AcDbCircle
 10
484.5312676648418
 20
288.6267241387026
 30
0.0
 40
0.5
100
AcDbArc
 50
180.0
 51
270.0
  0
LINE
  5
1716
330
18
100
AcDbEntity
  8
1
100
AcDbLine
 10
483.0312676648418
 20
286.1267241387026
 30
0.0
 11
484.0312676648418
 21
286.1267241387026
 31
0.0
  0
LINE
  5
1717
330
18
100
AcDbEntity
  8
1
100
AcDbLine
 10
483.0312676648418
 20
286.6267241387026
 30
0.0
 11
483.0312676648418
 21
286.1267241387026
 31
0.0
  0
LINE
  5
1718
330
18
100
AcDbEntity
  8
1
100
AcDbLine
 10
484.0312676648418
 20
286.1267241387026
 30
0.0
 11
484.0312676648418
 21
286.6267241387026
 31
0.0
  0
ARC
  5
1719
330
18
100
AcDbEntity
  8
1
100
AcDbCircle
 10
484.5312676648418
 20
286.6267241387026
 30
0.0
 40
0.5
100
AcDbArc
 50
90.0
 51
180.0
  0
LINE
  5
171A
330
18
100
AcDbEntity
  8
1
100
AcDbLine
 10
487.5312676648418
 20
291.6267241387026
 30
0.0
 11
486.5312676648418
 21
291.6267241387026
 31
0.0
  0
LINE
  5
171B
330
18
100
AcDbEntity
  8
1
100
AcDbLine
 10
486.5312676648418
 20
292.1267241387026
 30
0.0
 11
486.5312676648418
 21
291.6267241387026
 31
0.0
  0
LINE
  5
171C
330
18
100
AcDbEntity
  8
1
100
AcDbLine
 10
486.5312676648418
 20
283.6267241387026
 30
0.0
 11
486.5312676648418
 21
283.1267241387026
 31
0.0
  0
LINE
  5
171D
330
18
100
AcDbEntity
  8
1
100
AcDbLine
 10
487.5312676648418
 20
283.6267241387026
 30
0.0
 11
486.5312676648418
 21
283.6267241387026
 31
0.0
  0
LINE
  5
171E
330
18
100
AcDbEntity
  8
1
100
AcDbLine
 10
484.0312676648418
 20
289.1267241387026
 30
0.0
 11
483.0312676648418
 21
289.1267241387026
 31
0.0
  0
LINE
  5
171F
330
18
100
AcDbEntity
  8
1
100
AcDbLine
 10
485.0312676648418
 20
287.1267241387026
 30
0.0
 11
485.0312676648418
 21
288.1267241387026
 31
0.0
  0
LINE
  5
1720
330
18
100
AcDbEntity
  8
1
100
AcDbLine
 10
483.0312676648418
 20
289.1267241387026
 30
0.0
 11
483.0312676648418
 21
288.6267241387026
 31
0.0
  0
LINE
  5
1721
330
18
100
AcDbEntity
  8
1
100
AcDbLine
 10
484.5312676648418
 20
287.1267241387026
 30
0.0
 11
485.0312676648418
 21
287.1267241387026
 31
0.0
  0
LINE
  5
1722
330
18
100
AcDbEntity
  8
1
100
AcDbLine
 10
485.0312676648418
 20
288.1267241387026
 30
0.0
 11
484.5312676648418
 21
288.1267241387026
 31
0.0
  0
LINE
  5
1723
330
18
100
AcDbEntity
  8
1
100
AcDbLine
 10
484.0312676648418
 20
288.6267241387026
 30
0.0
 11
484.0312676648418
 21
289.1267241387026
 31
0.0
  0
LINE
  5
1724
330
18
100
AcDbEntity
  8
1
100
AcDbLine
 10
472.8812676648418
 20
339.8267241387026
 30
0.0
 11
480.6812676648418
 21
339.8267241387026
 31
0.0
  0
LINE
  5
1725
330
18
100
AcDbEntity
  8
1
100
AcDbLine
 10
476.7812676648418
 20
343.1600574720359
 30
0.0
 11
472.8812676648418
 21
343.1600574720359
 31
0.0
  0
LINE
  5
1726
330
18
100
AcDbEntity
  8
1
100
AcDbLine
 10
472.8812676648418
 20
343.1600574720359
 30
0.0
 11
472.8812676648418
 21
339.8267241387026
 31
0.0
  0
LINE
  5
1727
330
18
100
AcDbEntity
  8
1
100
AcDbLine
 10
476.7812676648418
 20
343.1600574720359
 30
0.0
 11
480.6812676648418
 21
343.1600574720359
 31
0.0
  0
LINE
  5
1728
330
18
100
AcDbEntity
  8
1
100
AcDbLine
 10
480.6812676648418
 20
343.1600574720359
 30
0.0
 11
480.6812676648418
 21
339.8267241387026
 31
0.0
  0
ARC
  5
1729
330
18
100
AcDbEntity
  8
1
100
AcDbCircle
 10
501.2812676648418
 20
341.8267241387026
 30
0.0
 40
2.0
100
AcDbArc
 50
0.0
 51
90.0
  0
TEXT
  5
17EA
330
18
100
AcDbEntity
  8
2
100
AcDbText
 10
379.1555610150205
 20
142.7836827225643
 30
0.0
 40
2.5
  1
４－パネル押さえ
  7
ＭＳ明朝
100
AcDbText
  0
LINE
  5
17EB
330
18
100
AcDbEntity
  8
2
100
AcDbLine
 10
378.9324289534206
 20
141.9314926102776
 30
0.0
 11
408.9324289534206
 21
141.9314926102776
 31
0.0
  0
TEXT
  5
17EC
330
18
100
AcDbEntity
  8
2
100
AcDbText
 10
450.7212920001875
 20
185.835395481901
 30
0.0
 40
2.5
  1
端子台
  7
ＭＳ明朝
100
AcDbText
  0
TEXT
  5
17ED
330
18
100
AcDbEntity
  8
2
100
AcDbText
 10
450.7212920001875
 20
180.835395481901
 30
0.0
 40
2.5
  1
結線ビスＭ３．５
  7
ＭＳ明朝
100
AcDbText
  0
LINE
  5
17EE
330
18
100
AcDbEntity
  8
2
100
AcDbLine
 10
448.6889299794706
 20
179.4266717795635
 30
0.0
 11
480.6889299794707
 21
179.4266717795635
 31
0.0
  0
DIMENSION
  5
1839
330
18
100
AcDbEntity
  8
2
100
AcDbDimension
  2
*D16
 10
498.7812517211151
 20
93.9205630481908
 30
0.0
 11
430.281251721115
 21
95.67056304819081
 31
0.0
 70
    32
 71
     5
 42
137.0
  3
STANDARD
100
AcDbAlignedDimension
 13
361.7812517211151
 23
86.4205630481908
 33
0.0
 14
498.7812517211151
 24
86.4205630481908
 34
0.0
100
AcDbRotatedDimension
1001
ACAD
1000
DSTYLE
1002
{
1070
   147
1040
0.5
1070
    72
1070
     0
1070
   272
1070
     0
1070
    47
1040
1.0
1070
   283
1070
     0
1070
    71
1070
     0
1070
    48
1040
1.000000001
1070
   146
1040
0.6
1070
    40
1040
1.0
1002
}
  0
LINE
  5
183A
330
18
100
AcDbEntity
  8
2
  6
Continuous
100
AcDbLine
 10
499.781251721115
 20
86.4205630481908
 30
0.0
 11
362.781251721115
 21
21.42056304819079
 31
0.0
  0
LINE
  5
183B
330
18
100
AcDbEntity
  8
2
  6
Continuous
100
AcDbLine
 10
362.781251721115
 20
86.4205630481908
 30
0.0
 11
499.781251721115
 21
21.42056304819079
 31
0.0
  0
LINE
  5
183C
330
18
100
AcDbEntity
  8
2
  6
4-中心線
100
AcDbLine
 10
357.7812517211151
 20
53.92054791910386
 30
0.0
 11
504.781251721115
 21
53.9205630481908
 31
0.0
  0
LWPOLYLINE
  5
183D
330
18
100
AcDbEntity
  8
1
100
AcDbPolyline
 90
        4
 70
     1
 43
0.0
 10
362.781251721115
 20
86.4205630481908
 10
499.781251721115
 20
86.4205630481908
 10
499.781251721115
 20
21.42056304819079
 10
362.781251721115
 20
21.42056304819079
  0
DIMENSION
  5
183E
330
18
100
AcDbEntity
  8
2
100
AcDbDimension
  2
*D17
 10
355.2812517211151
 20
20.42056304819083
 30
0.0
 11
353.5312517211151
 21
52.92056304819087
 31
0.0
 70
    32
 71
     5
 42
64.99999999999997
  3
STANDARD
100
AcDbAlignedDimension
 13
362.781251721115
 23
85.4205630481908
 33
0.0
 14
362.781251721115
 24
20.42056304819082
 34
0.0
 50
90.0
100
AcDbRotatedDimension
1001
ACAD
1000
DSTYLE
1002
{
1070
   147
1040
0.5
1070
    72
1070
     0
1070
   272
1070
     0
1070
    47
1040
1.0
1070
   283
1070
     0
1070
    71
1070
     0
1070
    48
1040
1.000000001
1070
   146
1040
0.6
1070
    40
1040
1.0
1002
}
  0
TEXT
  5
183F
330
18
100
AcDbEntity
  8
2
100
AcDbText
 10
312.7812517211663
 20
85.42064147896597
 30
0.0
 40
3.0
  1
※ 取付可能板厚
  7
ＭＳ明朝
100
AcDbText
  0
TEXT
  5
1840
330
18
100
AcDbEntity
  8
2
100
AcDbText
 10
322.7812517211663
 20
80.42064147896597
 30
0.0
 40
3.0
  1
ｔ=1.0～3.2mm
  7
ＭＳ明朝
100
AcDbText
  0
TEXT
  5
1841
330
18
100
AcDbEntity
  8
2
100
AcDbText
 10
352.7704997796421
 20
55.03479126893758
 30
0.0
 40
1.5
  1
+0.8
 50
90.0
  7
ＭＳ明朝
100
AcDbText
  0
TEXT
  5
1842
330
18
100
AcDbEntity
  8
2
100
AcDbText
 10
354.7704997796421
 20
55.03479126893758
 30
0.0
 40
1.5
  1
-0
 50
90.0
  7
ＭＳ明朝
100
AcDbText
  0
LINE
  5
1843
330
18
100
AcDbEntity
  8
2
370
    30
100
AcDbLine
 10
307.7812517211663
 20
92.92064147896597
 30
0.0
 11
347.781251721115
 21
92.9205630481908
 31
0.0
  0
TEXT
  5
1844
330
18
100
AcDbEntity
  8
2
100
AcDbText
 10
308.0326802925693
 20
93.92060226357838
 30
0.0
 40
3.0
  1
パネルカット寸法図
  7
ＭＳ明朝
 72
     1
 11
327.7812517211407
 21
93.92060226357838
 31
0.0
100
AcDbText
  0
LINE
  5
1845
330
18
100
AcDbEntity
  8
2
  6
4-中心線
100
AcDbLine
 10
431.2812517211151
 20
16.4205630481908
 30
0.0
 11
431.2812517211151
 21
91.4205630481908
 31
0.0
  0
TEXT
  5
1846
330
18
100
AcDbEntity
  8
2
100
AcDbText
 10
433.4124050642958
 20
94.37312694226735
 30
0.0
 40
1.5
  1
-0
  7
ＭＳ明朝
100
AcDbText
  0
TEXT
  5
1847
330
18
100
AcDbEntity
  8
2
100
AcDbText
 10
433.4124050642958
 20
96.37312694226736
 30
0.0
 40
1.5
  1
+0.8
  7
ＭＳ明朝
100
AcDbText
  0
VIEWPORT
  5
699
330
692
100
AcDbEntity
 67
     1
  8
0
100
AcDbViewport
 10
142.4986347259969
 20
99.00077671910931
 30
0.0
 40
311.3917251087822
 41
199.5895547398193
 68
     1
 69
     1
 12
142.4986347259969
 22
99.00077671910931
 13
0.0
 23
0.0
 14
1.0
 24
1.0
 15
10.0
 25
10.0
 16
0.0
 26
0.0
 36
1.0
 17
0.0
 27
0.0
 37
0.0
 42
50.0
 43
0.0
 44
0.0
 45
199.5895547398193
 50
0.0
 51
0.0
 72
   100
 90
    33056
  1

281
     0
 71
     1
 74
     0
110
0.0
120
0.0
130
0.0
111
1.0
121
0.0
131
0.0
112
0.0
122
1.0
132
0.0
 79
     0
146
0.0
  0
VIEWPORT
  5
69B
330
692
100
AcDbEntity
 67
     1
  8
X ﾋﾞｭｰ
100
AcDbViewport
 10
142.5
 20
99.0
 30
0.0
 40
285.0
 41
198.0
 68
     2
 69
     2
 12
322.1905614190256
 22
180.2741657863695
 13
0.0
 23
0.0
 14
1.0
 24
1.0
 15
10.0
 25
10.0
 16
0.0
 26
0.0
 36
1.0
 17
0.0
 27
0.0
 37
0.0
 42
50.0
 43
0.0
 44
0.0
 45
421.2384755833035
 50
0.0
 51
0.0
 72
   100
 90
    33056
  1

281
     0
 71
     1
 74
     0
110
0.0
120
0.0
130
0.0
111
1.0
121
0.0
131
0.0
112
0.0
122
1.0
132
0.0
 79
     0
146
0.0
  0
ENDSEC
  0
SECTION
  2
OBJECTS
  0
DICTIONARY
  5
C
330
0
100
AcDbDictionary
281
     1
  3
ACAD_GROUP
350
D
  3
ACAD_LAYOUT
350
5E1
  3
ACAD_MLINESTYLE
350
1B
  3
ACAD_PLOTSETTINGS
350
5E2
  3
ACAD_PLOTSTYLENAME
350
5DF
  3
AcadDim
350
662
  3
CONTENTDICTIONARY
350
20
  0
DICTIONARY
  5
D9C
330
2
100
AcDbDictionary
280
     1
281
     1
  3
ACAD_LAYERFILTERS
360
17E0
  3
ACAD_LAYERSTATES
360
D9D
  0
DICTIONARY
  5
D
102
{ACAD_REACTORS
330
C
102
}
330
C
100
AcDbDictionary
281
     1
  0
DICTIONARY
  5
5E1
102
{ACAD_REACTORS
330
C
102
}
330
C
100
AcDbDictionary
281
     1
  3
Model
350
5E3
  3
ﾚｲｱｳﾄ1
350
693
  0
DICTIONARY
  5
1B
102
{ACAD_REACTORS
330
C
102
}
330
C
100
AcDbDictionary
281
     1
  3
STANDARD
350
1C
  0
DICTIONARY
  5
5E2
102
{ACAD_REACTORS
330
C
102
}
330
C
100
AcDbDictionary
281
     1
  0
ACDBDICTIONARYWDFLT
  5
5DF
102
{ACAD_REACTORS
330
C
102
}
330
C
100
AcDbDictionary
281
     1
  3
Normal
350
5E0
100
AcDbDictionaryWithDefault
340
5E0
  0
XRECORD
  5
662
102
{ACAD_REACTORS
330
C
102
}
330
C
100
AcDbXrecord
280
     1
 90
   990106
  3

 60
     0
 61
     0
 62
     4
 63
     4
 64
     1
 65
     0
 66
     0
 67
     3
 68
     1
 69
     0
 70
     0
 71
     0
 72
     0
 40
0.0
170
     2
340
0
  0
DICTIONARY
  5
20
102
{ACAD_REACTORS
330
C
102
}
330
C
100
AcDbDictionary
281
     1
1001
CONTENTTABDATA
1070
     6
1000
ビス.dwg
1000
C:\Program Files\AutoCAD LT 97\SYMBOLS\ビス.dwg
1070
     0
1070
     0
1070
     1
1000
ｺﾈｸﾀ.dwg
1000
C:\Program Files\AutoCAD LT 97\SYMBOLS\ｺﾈｸﾀ.dwg
1070
     0
1070
     0
1070
     1
1000
表示器.dwg
1000
C:\Program Files\AutoCAD LT 97\SYMBOLS\表示器.dwg
1070
     0
1070
     0
1070
     1
1000
ﾄﾗﾝｽ.dwg
1000
C:\Program Files\AutoCAD LT 97\SYMBOLS\ﾄﾗﾝｽ.dwg
1070
     0
1070
     0
1070
     1
1000
ﾘﾚｰ.dwg
1000
C:\Program Files\AutoCAD LT 97\SYMBOLS\ﾘﾚｰ.dwg
1070
     0
1070
     0
1070
     1
1000
汎用.dwg
1000
C:\Program Files\AutoCAD LT 97\SYMBOLS\汎用.dwg
1070
     0
1070
     0
1070
     1
1001
CONTENTCURRENTTAB
1070
     2
  0
DICTIONARY
  5
17E0
102
{ACAD_REACTORS
330
D9C
102
}
330
D9C
100
AcDbDictionary
280
     1
281
     1
  0
DICTIONARY
  5
D9D
102
{ACAD_REACTORS
330
D9C
102
}
330
D9C
100
AcDbDictionary
281
     1
  0
LAYOUT
  5
5E3
102
{ACAD_REACTORS
330
5E1
102
}
330
5E1
100
AcDbPlotSettings
  1

  2
RICOH imagio MP C3000 RPCS.pc3
  4
A3
  6

 40
5.873749732971191
 41
5.873747825622558
 42
5.873748779296875
 43
5.873748779296875
 44
419.9466552734374
 45
296.9259948730469
 46
0.0
 47
0.0
 48
0.0
 49
0.0
140
0.0
141
0.0
142
1.0
143
1.286122978510651
 70
 11952
 72
     1
 73
     0
 74
     0
  7
monochrome.ctb
 75
     0
147
0.7775306224277355
148
0.0
149
0.0
100
AcDbLayout
  1
Model
 70
     1
 71
     0
 10
0.0
 20
0.0
 11
12.0
 21
9.0
 12
0.0
 22
0.0
 32
0.0
 14
0.0
 24
0.0
 34
0.0
 15
0.0
 25
0.0
 35
0.0
146
0.0
 13
0.0
 23
0.0
 33
0.0
 16
1.0
 26
0.0
 36
0.0
 17
0.0
 27
1.0
 37
0.0
 76
     0
330
18
  0
LAYOUT
  5
693
102
{ACAD_REACTORS
330
5E1
102
}
330
5E1
100
AcDbPlotSettings
  1

  2
RICOH imagio MP C3000 RPCS
  4
A4
  6

 40
5.873749732971191
 41
5.873747825622558
 42
5.873748779296875
 43
5.873748779296875
 44
209.9733276367187
 45
296.9259948730469
 46
0.0
 47
0.0
 48
0.0
 49
0.0
140
0.0
141
0.0
142
1.0
143
1.0
 70
   688
 72
     1
 73
     1
 74
     5
  7
monochrome.ctb
 75
    16
147
1.0
148
0.0
149
0.0
100
AcDbLayout
  1
ﾚｲｱｳﾄ1
 70
     1
 71
     1
 10
-5.873748779296875
 20
-5.873749732971191
 11
291.05224609375
 21
204.0995779037475
 12
0.0
 22
0.0
 32
0.0
 14
-0.015512739179826
 24
-0.0009295723639866
 34
-0.0015258207003583
 15
285.0127821911737
 25
198.0024830105826
 35
0.0000000349246037
146
0.0
 13
0.0
 23
0.0
 33
0.0
 16
1.0
 26
0.0
 36
0.0
 17
0.0
 27
1.0
 37
0.0
 76
     0
330
692
331
699
  0
MLINESTYLE
  5
1C
102
{ACAD_REACTORS
330
1B
102
}
330
1B
100
AcDbMlineStyle
  2
STANDARD
 70
     0
  3

 62
   256
 51
90.0
 52
90.0
 71
     2
 49
0.5
 62
   256
  6
BYLAYER
 49
-0.5
 62
   256
  6
BYLAYER
  0
ACDBPLACEHOLDER
  5
5E0
102
{ACAD_REACTORS
330
5DF
102
}
330
5DF
  0
ENDSEC
  0
EOF
